<?xml version="1.0" standalone="no"?>
<!DOCTYPE svg PUBLIC "-//W3C//DTD SVG 1.1//EN" "http://www.w3.org/Graphics/SVG/1.1/DTD/svg11.dtd" >
<svg xmlns="http://www.w3.org/2000/svg" xmlns:xlink="http://www.w3.org/1999/xlink" version="1.1">
<metadata>
Created by FontForge 20170731 at Tue May 11 19:17:13 2021
 By Aleksey,,,
Copyright 2019 The Quicksand Project Authors (https://github.com/andrew-paglinawan/QuicksandFamily.git), with Reserved Font Name "Quicksand"
</metadata>
<defs>
<font id="Quicksand-Regular" horiz-adv-x="0" >
  <font-face 
    font-family="Quicksand"
    font-weight="400"
    font-stretch="normal"
    units-per-em="1000"
    panose-1="0 0 0 0 0 0 0 0 0 0"
    ascent="800"
    descent="-200"
    x-height="508"
    cap-height="700"
    bbox="-168 -216 1317 1133"
    underline-thickness="50"
    underline-position="-175"
    unicode-range="U+000D-FB02"
  />
<missing-glyph horiz-adv-x="584" 
d="M40 665q0 35 35 35h434q35 0 35 -35v-630q0 -35 -35 -35h-434q-35 0 -35 35v630zM95 670q-7 0 -3 -6l416 -599q2 -3 4 -2.5t2 4.5v598q0 5 -5 5h-414zM70 35q0 -5 5 -5h413q7 0 3 6l-415 599q-2 3 -4 2.5t-2 -4.5v-598z" />
    <glyph glyph-name="fi" unicode="fi" horiz-adv-x="573" 
d="M264 736q15 0 32.5 -3t30.5 -10.5t13 -22.5q0 -11 -8 -19.5t-18 -8.5t-25 5.5t-32 5.5q-21 0 -36 -9.5t-23 -27t-8 -42.5v-574q0 -12 -8.5 -21t-21.5 -9t-21.5 9t-8.5 21v574q0 64 37.5 98t96.5 34zM302 501q12 0 20 -8t8 -20t-8 -20t-20 -8h-245q-11 0 -19.5 8.5
t-8.5 19.5q0 13 8.5 20.5t19.5 7.5h245zM497 30q0 -12 -9 -21t-21 -9q-13 0 -21.5 9t-8.5 21v460q0 12 8.5 21t21.5 9t21.5 -9t8.5 -21v-460zM467 587q-21 0 -31.5 9.5t-10.5 27.5v10q0 18 11.5 27.5t31.5 9.5q19 0 29.5 -9.5t10.5 -27.5v-10q0 -18 -10.5 -27.5t-30.5 -9.5z
" />
    <glyph glyph-name="fl" unicode="fl" horiz-adv-x="589" 
d="M264 736q15 0 32.5 -3t30.5 -10.5t13 -22.5q0 -11 -8 -19.5t-18 -8.5t-25 5.5t-32 5.5q-21 0 -36 -9.5t-23 -27t-8 -42.5v-574q0 -12 -8.5 -21t-21.5 -9t-21.5 9t-8.5 21v574q0 64 37.5 98t96.5 34zM302 501q12 0 20 -8t8 -20t-8 -20t-20 -8h-245q-11 0 -19.5 8.5
t-8.5 19.5q0 13 8.5 20.5t19.5 7.5h245zM505 30q0 -12 -9 -21t-21 -9q-13 0 -21.5 9t-8.5 21v680q0 12 9 21t21 9q13 0 21.5 -9t8.5 -21v-680z" />
    <glyph glyph-name="f_f" unicode="ff" horiz-adv-x="720" 
d="M264 736q15 0 32.5 -3t30.5 -10.5t13 -22.5q0 -11 -8 -19.5t-18 -8.5t-25 5.5t-32 5.5q-21 0 -36 -9.5t-23 -27t-8 -42.5v-574q0 -12 -8.5 -21t-21.5 -9t-21.5 9t-8.5 21v574q0 64 37.5 98t96.5 34zM302 501q12 0 20 -8t8 -20t-8 -20t-20 -8h-245q-11 0 -19.5 8.5
t-8.5 19.5q0 13 8.5 20.5t19.5 7.5h245zM624 736q15 0 32.5 -3t30.5 -10.5t13 -22.5q0 -11 -8 -19.5t-18 -8.5t-25 5.5t-32 5.5q-21 0 -36 -9.5t-23 -27t-8 -42.5v-574q0 -12 -8.5 -21t-21.5 -9t-21.5 9t-8.5 21v574q0 64 37.5 98t96.5 34zM662 501q12 0 20 -8t8 -20t-8 -20
t-20 -8h-245q-11 0 -19.5 8.5t-8.5 19.5q0 13 8.5 20.5t19.5 7.5h245z" />
    <glyph glyph-name="f_f_i" unicode="ffi" horiz-adv-x="933" 
d="M264 736q15 0 32.5 -3t30.5 -10.5t13 -22.5q0 -11 -8 -19.5t-18 -8.5t-25 5.5t-32 5.5q-21 0 -36 -9.5t-23 -27t-8 -42.5v-574q0 -12 -8.5 -21t-21.5 -9t-21.5 9t-8.5 21v574q0 64 37.5 98t96.5 34zM302 501q12 0 20 -8t8 -20t-8 -20t-20 -8h-245q-11 0 -19.5 8.5
t-8.5 19.5q0 13 8.5 20.5t19.5 7.5h245zM624 736q15 0 32.5 -3t30.5 -10.5t13 -22.5q0 -11 -8 -19.5t-18 -8.5t-25 5.5t-32 5.5q-21 0 -36 -9.5t-23 -27t-8 -42.5v-574q0 -12 -8.5 -21t-21.5 -9t-21.5 9t-8.5 21v574q0 64 37.5 98t96.5 34zM662 501q12 0 20 -8t8 -20t-8 -20
t-20 -8h-245q-11 0 -19.5 8.5t-8.5 19.5q0 13 8.5 20.5t19.5 7.5h245zM857 30q0 -12 -9 -21t-21 -9q-13 0 -21.5 9t-8.5 21v460q0 12 8.5 21t21.5 9t21.5 -9t8.5 -21v-460zM826 587q-21 0 -31.5 9.5t-10.5 27.5v10q0 18 11.5 27.5t31.5 9.5q19 0 29.5 -9.5t10.5 -27.5v-10
q0 -18 -10.5 -27.5t-30.5 -9.5z" />
    <glyph glyph-name="f_f_l" unicode="ffl" horiz-adv-x="949" 
d="M264 736q15 0 32.5 -3t30.5 -10.5t13 -22.5q0 -11 -8 -19.5t-18 -8.5t-25 5.5t-32 5.5q-21 0 -36 -9.5t-23 -27t-8 -42.5v-574q0 -12 -8.5 -21t-21.5 -9t-21.5 9t-8.5 21v574q0 64 37.5 98t96.5 34zM302 501q12 0 20 -8t8 -20t-8 -20t-20 -8h-245q-11 0 -19.5 8.5
t-8.5 19.5q0 13 8.5 20.5t19.5 7.5h245zM624 736q15 0 32.5 -3t30.5 -10.5t13 -22.5q0 -11 -8 -19.5t-18 -8.5t-25 5.5t-32 5.5q-21 0 -36 -9.5t-23 -27t-8 -42.5v-574q0 -12 -8.5 -21t-21.5 -9t-21.5 9t-8.5 21v574q0 64 37.5 98t96.5 34zM662 501q12 0 20 -8t8 -20t-8 -20
t-20 -8h-245q-11 0 -19.5 8.5t-8.5 19.5q0 13 8.5 20.5t19.5 7.5h245zM865 30q0 -12 -9 -21t-21 -9q-13 0 -21.5 9t-8.5 21v680q0 12 9 21t21 9q13 0 21.5 -9t8.5 -21v-680z" />
    <glyph glyph-name=".notdef" horiz-adv-x="584" 
d="M40 665q0 35 35 35h434q35 0 35 -35v-630q0 -35 -35 -35h-434q-35 0 -35 35v630zM95 670q-7 0 -3 -6l416 -599q2 -3 4 -2.5t2 4.5v598q0 5 -5 5h-414zM70 35q0 -5 5 -5h413q7 0 3 6l-415 599q-2 3 -4 2.5t-2 -4.5v-598z" />
    <glyph glyph-name=".null" 
 />
    <glyph glyph-name="nonmarkingreturn" horiz-adv-x="333" 
 />
    <glyph glyph-name="CR" unicode="&#xd;" horiz-adv-x="273" 
 />
    <glyph glyph-name="space" unicode=" " horiz-adv-x="273" 
 />
    <glyph glyph-name="exclam" unicode="!" horiz-adv-x="185" 
d="M93 196q-19 0 -21 21l-11 442q0 18 7 29.5t25 11.5q17 0 24.5 -11.5t6.5 -29.5l-11 -442q-1 -21 -20 -21zM90 0q-17 0 -26.5 10.5t-9.5 27.5v22q0 18 9.5 28t26.5 10h6q18 0 26.5 -10t8.5 -28v-22q0 -17 -8.5 -27.5t-26.5 -10.5h-6z" />
    <glyph glyph-name="quotedbl" unicode="&#x22;" horiz-adv-x="383" 
d="M70 674q3 26 29 26h32q13 0 17 -8t0 -20l-63 -216q-6 -21 -28 -21q-16 0 -13 26zM260 674q3 26 29 26h32q13 -1 17 -8.5t0 -19.5l-63 -216q-6 -21 -28 -21q-16 0 -13 26z" />
    <glyph glyph-name="numbersign" unicode="#" horiz-adv-x="654" 
d="M143 0q-15 0 -23.5 12t-6.5 29l109 633q3 12 11 19t19 7q16 0 24.5 -11.5t5.5 -28.5l-109 -634q-1 -12 -9.5 -19t-20.5 -7zM96 462q-14 0 -23.5 9.5t-9.5 23.5q0 13 9.5 21t23.5 8h502q14 0 23 -9.5t9 -23.5q0 -13 -9 -21t-23 -8h-502zM402 0q-16 0 -24.5 12t-5.5 29
l109 633q2 12 10 19t20 7q16 0 24.5 -11.5t5.5 -28.5l-109 -634q-2 -12 -10 -19t-20 -7zM56 181q-13 0 -22.5 9.5t-9.5 22.5t9.5 21t22.5 8h503q14 0 23 -9t9 -23q0 -13 -9 -21t-23 -8h-503z" />
    <glyph glyph-name="dollar" unicode="$" horiz-adv-x="562" 
d="M287 -10q-76 -1 -132 24t-107 75q-5 4 -8.5 10t-3.5 14q0 12 9.5 22t21.5 10t22 -10q39 -42 88.5 -64t106.5 -22q48 0 85.5 15t59.5 43t22 65q0 46 -25 74.5t-66 47t-91 33.5q-41 12 -78 27.5t-66 38t-45 55.5t-16 80q0 53 28 94t79.5 64.5t119.5 23.5q59 0 113.5 -20
t86.5 -59q15 -16 15 -29q0 -10 -10 -20t-22 -10q-10 0 -17 7q-17 21 -43 37.5t-57.5 25.5t-65.5 9q-47 0 -84.5 -14.5t-59 -41.5t-21.5 -65q0 -42 24 -69t63 -44.5t83 -32.5q43 -12 82.5 -27.5t70 -38.5t48 -58t17.5 -88q0 -51 -29 -92t-79.5 -65t-118.5 -25zM318 -121
q0 -12 -8.5 -21t-21.5 -9t-21.5 9t-8.5 21v906q0 13 8.5 21.5t22.5 8.5q13 0 21 -8.5t8 -21.5v-906z" />
    <glyph glyph-name="percent" unicode="%" horiz-adv-x="776" 
d="M181 343q-45 0 -75 25t-45.5 66.5t-15.5 89.5q0 50 15.5 92t46.5 67t76 25t75.5 -25t46 -67t15.5 -91q0 -48 -16 -90t-46.5 -67t-76.5 -25zM183 395q43 0 61.5 37t18.5 92q0 58 -20.5 95t-61.5 37q-42 0 -60.5 -38t-18.5 -93q0 -57 20.5 -93.5t60.5 -36.5zM593 -8
q-44 0 -75 25t-46.5 66.5t-15.5 89.5q0 50 16 92t47 67t76 25t75.5 -25t45.5 -67t15 -91q0 -48 -16 -90t-46.5 -67t-75.5 -25zM595 44q42 0 61 37t19 92q0 58 -20.5 95t-61.5 37q-42 0 -61 -38t-19 -93q0 -57 21 -93.5t61 -36.5zM170 -3q-11 0 -19.5 7.5t-8.5 19.5q0 8 5 16
l428 650q9 13 22 13q11 0 19.5 -7t8.5 -20q0 -7 -5 -16l-428 -650q-9 -13 -22 -13z" />
    <glyph glyph-name="ampersand" unicode="&#x26;" horiz-adv-x="679" 
d="M272 -10q-71 0 -126 33t-85.5 85t-30.5 110q0 44 17.5 85t53 73.5t90.5 51.5l43 -43q-78 -18 -110 -62t-32 -97q0 -45 21 -85.5t63 -66.5t103 -26q65 0 111.5 21.5t78.5 57t51 80t28 90.5q2 10 8.5 15.5t18.5 5.5q14 0 22 -10t6 -25q-9 -54 -33 -106t-65 -94.5t-99 -67.5
t-134 -25zM627 3q-5 0 -9.5 1.5t-8.5 3.5q-61 48 -117.5 92.5t-112 96.5t-116.5 120q-35 40 -63 78.5t-45 76t-17 74.5q0 46 23 83.5t65 59t100 21.5q72 0 119 -27t66 -64q1 -1 3 -6.5t2 -12.5q0 -9 -7.5 -17t-20.5 -8q-8 0 -13.5 3t-8.5 8q-20 30 -52.5 49.5t-87.5 19.5
q-61 0 -93 -30.5t-32 -78.5q0 -31 17 -65.5t43.5 -69.5t55.5 -68q40 -45 84.5 -87.5t88 -79.5t82.5 -67t69 -53q7 -5 10 -11t3 -14t-7 -18t-20 -10z" />
    <glyph glyph-name="quotesingle" unicode="'" horiz-adv-x="193" 
d="M70 674q3 26 29 26h33q13 -1 16.5 -8.5t0.5 -19.5l-64 -216q-6 -21 -28 -21q-16 0 -13 26z" />
    <glyph glyph-name="parenleft" unicode="(" horiz-adv-x="374" 
d="M321 -192q-7 0 -15 5q-84 42 -140 111.5t-84.5 155.5t-28.5 177t29.5 174.5t86.5 153t138 117.5q7 4 14 4q12 0 19 -8.5t7 -18.5q0 -14 -12 -23q-71 -41 -120.5 -104.5t-75.5 -139.5t-26 -155t25 -156t74.5 -140.5t122.5 -102.5q12 -7 12 -23q0 -10 -7 -18.5t-19 -8.5z
" />
    <glyph glyph-name="parenright" unicode=")" horiz-adv-x="374" 
d="M52 -191q-11 0 -18.5 8.5t-7.5 18.5q0 15 13 23q71 41 120.5 104.5t75.5 139.5t26 155t-25 156t-74.5 141t-122.5 103q-12 7 -12 22q0 11 6.5 19t18.5 8q8 0 15 -4q85 -43 141 -112.5t84.5 -155t28.5 -177.5q0 -90 -29.5 -174.5t-86.5 -153.5t-138 -117q-6 -4 -15 -4z
" />
    <glyph glyph-name="asterisk" unicode="*" horiz-adv-x="309" 
d="M154 400q-9 0 -15.5 7.5t-5.5 17.5l7 93q1 3 -1 4.5t-4 -0.5l-78 -54q-8 -6 -18 -4t-15 11q-6 10 -2.5 19t13.5 14l86 40q3 1 3 3t-3 3l-86 41q-10 5 -13 14.5t2 18.5q6 10 15.5 11t17.5 -4l78 -54q2 -2 4 -1t1 4l-7 93q-1 10 6 17.5t17 7.5t16 -7.5t5 -17.5l-7 -93
q-1 -3 1 -4t5 1l77 53q9 6 19 4t15 -11q6 -9 2 -18t-14 -14l-85 -41q-3 -1 -3 -3t3 -3l85 -40q11 -5 14 -14t-2 -19q-5 -9 -15 -11t-19 4l-77 54q-3 2 -5 0.5t-1 -4.5l7 -93q1 -10 -5.5 -17.5t-17.5 -7.5z" />
    <glyph glyph-name="plus" unicode="+" horiz-adv-x="562" 
d="M77 304q-12 0 -20.5 8.5t-8.5 21.5q0 12 8.5 19.5t20.5 7.5h413q12 0 20.5 -8t8.5 -21q0 -11 -8.5 -19.5t-20.5 -8.5h-413zM283 88q-14 0 -23 9t-9 23v423q0 15 9.5 24t22.5 9q15 0 23.5 -9t8.5 -23v-424q0 -14 -9 -23t-23 -9z" />
    <glyph glyph-name="comma" unicode="," horiz-adv-x="194" 
d="M159 -8q0 -27 -16 -52.5t-39 -42t-45 -16.5q-8 0 -15.5 5t-7.5 19t9.5 15.5t23.5 9.5q17 8 26 20t9 28q0 13 -7.5 20t-17.5 7q-7 0 -14 -2t-13 -6q-5 5 -9 11t-3 15q2 17 18.5 29.5t38.5 12.5q27 0 44.5 -22t17.5 -51z" />
    <glyph glyph-name="hyphen" unicode="-" horiz-adv-x="390" 
d="M87 283q-12 0 -20.5 9t-8.5 22q0 12 8.5 20.5t20.5 8.5h216q12 0 21 -9t9 -22q0 -12 -9 -20.5t-21 -8.5h-216z" />
    <glyph glyph-name="period" unicode="." horiz-adv-x="181" 
d="M87 0q-17 0 -26 11t-9 28v21q0 18 9 28t26 10h7q17 0 26 -10t9 -28v-21q0 -17 -9 -28t-26 -11h-7z" />
    <glyph glyph-name="slash" unicode="/" horiz-adv-x="522" 
d="M36 -129q-12 0 -20 8t-8 20q0 7 4 15l435 861q7 14 14.5 19t18.5 5q9 0 17.5 -7t8.5 -20q0 -9 -4 -18l-435 -862q-7 -11 -14 -16t-17 -5z" />
    <glyph glyph-name="zero" unicode="0" horiz-adv-x="595" 
d="M297 -10q-80 0 -134 48t-81 129.5t-27 182.5q0 102 27 183.5t81 129t134 47.5q82 0 135.5 -47.5t80.5 -129t27 -183.5q0 -101 -27 -182.5t-80.5 -129.5t-135.5 -48zM297 52q59 0 98.5 37t60 104.5t20.5 156.5q0 90 -20.5 157.5t-60 104.5t-98.5 37q-58 0 -97.5 -37
t-60 -104.5t-20.5 -157.5q0 -89 20.5 -156.5t60 -104.5t97.5 -37z" />
    <glyph glyph-name="one" unicode="1" horiz-adv-x="370" 
d="M226 0q-14 0 -23 9t-9 21v602l11 -10l-133 -89q-8 -6 -17 -6q-12 0 -21.5 10t-9.5 22q0 16 16 25l167 111q6 4 12.5 5t11.5 0q13 -1 20 -9.5t7 -20.5v-640q0 -12 -9 -21t-23 -9z" />
    <glyph glyph-name="two" unicode="2" horiz-adv-x="554" 
d="M474 58q12 0 20.5 -8.5t8.5 -20.5q0 -13 -8.5 -21t-20.5 -8h-375q-13 0 -22.5 7.5t-9.5 22.5q0 11 8 21l231 255q55 60 82.5 110.5t27.5 90.5q0 66 -40 106t-108 40q-31 0 -61.5 -13t-54 -34t-36.5 -48q-6 -10 -12.5 -14t-14.5 -4q-12 0 -21 7.5t-9 18.5q0 7 3.5 14
t10.5 16q18 31 50 57t71.5 41.5t77.5 15.5q64 0 110.5 -24.5t72 -69t25.5 -105.5q0 -52 -32.5 -113.5t-96.5 -132.5l-195 -219l-10 12h328z" />
    <glyph glyph-name="three" unicode="3" horiz-adv-x="524" 
d="M89 103q5 0 10.5 -2t13.5 -9q21 -22 50 -33.5t66 -11.5q49 0 89.5 22t64.5 61.5t24 90.5q0 58 -25.5 93.5t-65 53t-80.5 17.5q-11 0 -21.5 -1.5t-19.5 -3.5t-14 -2q-13 0 -20 8.5t-7 21.5q0 7 3 12.5t8 12.5l203 221l12 -16h-303q-12 0 -20.5 8.5t-8.5 20.5t8.5 20
t20.5 8h336q17 0 24 -10.5t7 -20.5q0 -6 -3 -11.5t-8 -11.5l-203 -221l-22 13q3 3 20.5 6.5t27.5 3.5q55 0 103.5 -26t79 -74.5t30.5 -119.5q0 -70 -33 -122.5t-89 -81.5t-124 -29q-41 0 -81 14t-70 42q-7 6 -10 12t-3 12q0 12 8.5 22.5t21.5 10.5z" />
    <glyph glyph-name="four" unicode="4" horiz-adv-x="527" 
d="M367 0q-13 0 -21 9t-8 21v587l13 -8l-263 -348l-3 11h384q12 0 20.5 -8t8.5 -20t-8.5 -20t-20.5 -8h-425q-12 0 -21 9.5t-9 21.5q0 11 7 20l322 421q5 7 12.5 9.5t12.5 2.5q13 0 21.5 -9t8.5 -21v-640q0 -12 -9 -21t-22 -9z" />
    <glyph glyph-name="five" unicode="5" horiz-adv-x="545" 
d="M234 -2q-41 0 -82.5 13.5t-73.5 40.5q-6 5 -9.5 12t-3.5 14q0 10 8 19.5t21 9.5q11 0 22 -9q26 -20 56.5 -31t61.5 -11q59 0 103 22.5t68 64t24 96.5q0 51 -22 88.5t-62.5 59t-95.5 21.5q-36 0 -65.5 -11t-51 -22.5t-34.5 -11.5q-12 0 -19.5 6t-10 15t-0.5 19l43 267
q1 9 9.5 16.5t21.5 7.5h301q12 0 20.5 -8.5t8.5 -20.5q0 -13 -8.5 -21.5t-20.5 -8.5h-287l9 9l-41 -237l-18 13q13 10 37.5 20t55 17.5t64.5 7.5q65 0 116 -28.5t80.5 -79t29.5 -116.5q0 -73 -31.5 -127.5t-88.5 -85t-135 -30.5z" />
    <glyph glyph-name="six" unicode="6" horiz-adv-x="538" 
d="M287 -10q-58 0 -101.5 21t-72 56.5t-42 80.5t-13.5 92q0 48 12 103.5t37 112.5t61.5 108t85 91.5t109.5 63.5q7 2 12 2q13 0 22.5 -7t9.5 -24q0 -10 -6.5 -17.5t-17.5 -11.5q-42 -18 -83 -51t-76 -76t-59.5 -92.5t-34.5 -100.5l-22 -13q18 33 46.5 58.5t65.5 41t80 15.5
q45 0 83 -19t65.5 -51.5t43 -73.5t15.5 -85q0 -59 -28.5 -110t-78 -82.5t-113.5 -31.5zM286 48q46 0 82 21t56.5 58.5t20.5 86.5q0 45 -17.5 83.5t-52 63t-85.5 24.5q-53 0 -91.5 -24t-59 -63.5t-20.5 -86.5q0 -42 20 -79.5t57.5 -60.5t89.5 -23z" />
    <glyph glyph-name="seven" unicode="7" horiz-adv-x="513" 
d="M178 -3q-12 0 -22 8t-10 20q0 7 3 15l266 611l11 -14h-338q-12 0 -20.5 8.5t-8.5 20.5q0 13 8.5 21t20.5 8h367q15 0 22 -8t7 -20q0 -8 -3 -15l-275 -635q-3 -9 -11 -14.5t-17 -5.5z" />
    <glyph glyph-name="eight" unicode="8" horiz-adv-x="540" 
d="M364 352l-3 9q34 -13 62 -38.5t45 -60t17 -75.5q0 -54 -28.5 -98t-77.5 -70t-109 -26q-61 0 -109.5 26t-77 70t-28.5 98q0 44 17.5 78.5t46 58.5t59.5 37l-3 -10q-27 13 -50.5 35.5t-38.5 54t-15 69.5q0 54 26.5 97t72 68t100.5 25t99.5 -25t71 -68t26.5 -97
q0 -39 -15 -70t-39 -53.5t-49 -34.5zM133 510q0 -40 19 -70t50 -47t68 -17q36 0 67 17t49.5 47t18.5 70q0 59 -38 96t-97 37q-61 0 -99 -37t-38 -96zM270 50q68 0 110.5 39t42.5 98q0 40 -21 72t-56 50t-76 18t-76 -18t-56 -50t-21 -72q0 -59 42 -98t111 -39z" />
    <glyph glyph-name="nine" unicode="9" horiz-adv-x="558" 
d="M277 711q59 0 102.5 -21t71.5 -56.5t42 -80.5t14 -92q0 -48 -12.5 -102.5t-37 -110t-61 -105.5t-85.5 -90t-109 -62q-8 -2 -13 -2q-12 0 -21.5 8.5t-9.5 22.5q0 10 6 17.5t18 11.5q57 24 110 71.5t91.5 110t51.5 129.5l21 13q-17 -32 -46 -58t-65.5 -40.5t-79.5 -14.5
q-64 0 -110.5 31.5t-71.5 83.5t-25 112q0 59 28.5 110t78 82.5t112.5 31.5zM279 653q-47 0 -83 -21t-56.5 -58.5t-20.5 -86.5q0 -44 17.5 -83t52.5 -62.5t85 -23.5q54 0 92 23.5t59 62.5t21 86q0 43 -20 80t-57 60t-90 23z" />
    <glyph glyph-name="colon" unicode=":" horiz-adv-x="187" 
d="M90 417q-17 0 -26 10.5t-9 27.5v21q0 18 9 28.5t26 10.5h7q17 0 26 -10.5t9 -28.5v-21q0 -17 -9 -27.5t-26 -10.5h-7zM90 0q-17 0 -26 10.5t-9 27.5v22q0 18 9 28t26 10h7q17 0 26 -10t9 -28v-22q0 -17 -9 -27.5t-26 -10.5h-7z" />
    <glyph glyph-name="semicolon" unicode=";" horiz-adv-x="199" 
d="M110 417q-17 0 -28 10.5t-11 27.5v21q0 18 11 28.5t28 10.5h6q18 0 28 -10.5t10 -28.5v-21q0 -17 -10 -27.5t-28 -10.5h-6zM167 -8q0 -27 -16 -52.5t-39 -42t-45 -16.5q-8 0 -15.5 5t-7.5 19t9.5 15.5t23.5 9.5q17 8 26 20t9 28q0 13 -7.5 20t-17.5 7q-7 0 -14 -2t-13 -6
q-5 5 -9 11t-3 15q2 17 18.5 29.5t38.5 12.5q27 0 44.5 -22t17.5 -51z" />
    <glyph glyph-name="less" unicode="&#x3c;" horiz-adv-x="523" 
d="M431 89q-6 0 -13 3t-13 6l-351 200q-12 7 -16.5 15.5t-4.5 19.5q0 12 6.5 20.5t17.5 14.5l345 196q6 3 12 5.5t11 2.5q13 1 22 -8t9 -21q0 -10 -4.5 -16t-13.5 -11l-352 -198l-2 28l350 -198q14 -7 19 -13.5t5 -16.5q0 -11 -8.5 -20t-18.5 -9z" />
    <glyph glyph-name="equal" unicode="=" horiz-adv-x="519" 
d="M81 391q-13 0 -22 8.5t-9 21.5q0 11 9 19t22 8h358q13 0 21.5 -8t8.5 -21q0 -11 -8.5 -19.5t-21.5 -8.5h-358zM81 208q-13 0 -22 8.5t-9 21.5q0 12 9 20t22 8h358q13 0 21.5 -8.5t8.5 -21.5q0 -11 -8.5 -19.5t-21.5 -8.5h-358z" />
    <glyph glyph-name="greater" unicode="&#x3e;" horiz-adv-x="530" 
d="M93 94q-11 0 -19.5 9.5t-8.5 19.5t5.5 16t18.5 13l355 194l2 -27l-361 202q-8 4 -12.5 10.5t-4.5 16.5q0 12 8.5 21t20.5 8q5 0 11.5 -2.5t12.5 -6.5l351 -198q12 -7 18.5 -15t6.5 -20t-5 -20.5t-17 -14.5l-357 -197q-6 -4 -12.5 -6.5t-12.5 -2.5z" />
    <glyph glyph-name="question" unicode="?" horiz-adv-x="485" 
d="M201 336q0 13 9 22t21 9q46 3 82 23t57 54t21 79q0 47 -19.5 81.5t-52.5 54t-75 19.5q-41 0 -77 -19t-60 -50q-8 -8 -18.5 -11.5t-22.5 4.5t-14 20.5t7 23.5q32 40 81 65t104 25q58 0 105.5 -26t75.5 -74t28 -113q0 -40 -16 -77t-44 -66t-65 -46t-80 -19q-3 0 2 1t10 6
v-105q0 -13 -8.5 -21.5t-21.5 -8.5t-21.5 8.5t-7.5 21.5v119zM231 0q-17 0 -26.5 10.5t-9.5 27.5v22q0 18 9.5 28t26.5 10h6q18 0 26.5 -10t8.5 -28v-22q0 -17 -8.5 -27.5t-26.5 -10.5h-6z" />
    <glyph glyph-name="at" unicode="@" horiz-adv-x="972" 
d="M689 55q-30 0 -53 12t-34.5 34.5t-7.5 51.5l9 69l14 -2q-21 -54 -54.5 -91t-74 -55.5t-80.5 -18.5q-43 0 -76 22.5t-52 59.5t-19 83q0 47 18 97.5t50.5 94.5t76.5 71t96 27q60 0 96.5 -37.5t44.5 -91.5l-19 -50l22 144q2 11 9 19t22 8q17 0 23 -9t3 -27l-47 -300
q-5 -34 10 -49t34 -15q36 0 67.5 25.5t56 68t38 95t13.5 105.5q0 79 -36.5 139t-104 93.5t-158.5 33.5q-103 0 -191 -30.5t-154 -90t-103.5 -143.5t-37.5 -192q0 -59 18.5 -116t57 -103.5t100.5 -73.5t148 -27q55 0 93.5 8.5t69.5 22t62 28.5q8 4 16.5 2.5t13.5 -13.5
q8 -20 -16 -32q-43 -21 -99 -42.5t-140 -21.5q-101 0 -172 31.5t-115.5 84.5t-65.5 118.5t-21 133.5q0 117 41.5 210t115 159t170.5 100.5t209 34.5q114 0 192 -42.5t117.5 -114t39.5 -157.5q0 -61 -17.5 -121.5t-49 -110t-75 -79.5t-94.5 -30zM417 106q35 0 70 18.5t64 50
t47.5 70t19.5 78.5q5 41 -8 71.5t-40.5 47.5t-65.5 17q-43 0 -77 -22.5t-58 -59t-36 -78t-12 -77.5q0 -55 28.5 -85.5t67.5 -30.5z" />
    <glyph glyph-name="A" unicode="A" horiz-adv-x="647" 
d="M328 623l-243 -604q-4 -10 -11 -15t-16 -5q-14 0 -21 7.5t-8 18.5q-1 5 1 12l264 646q5 11 12.5 15.5t17.5 4.5t17.5 -5.5t11.5 -14.5l263 -643q2 -6 2 -12q0 -14 -9 -21.5t-21 -7.5q-10 0 -17.5 5.5t-11.5 14.5l-249 608zM143 202l25 59h310l12 -59h-347z" />
    <glyph glyph-name="B" unicode="B" horiz-adv-x="651" 
d="M389 700q84 0 131.5 -45.5t47.5 -126.5q0 -42 -18 -80t-53 -61.5t-87 -26.5l-4 20q37 0 72.5 -10.5t63.5 -33.5t45 -57.5t17 -83.5q0 -52 -17.5 -89.5t-47 -60.5t-67.5 -34t-79 -11h-269q-12 0 -21 9t-9 21v640q0 12 9 21t21 9h265zM381 641h-235l12 18v-283l-11 15h234
q52 1 87.5 34t35.5 98q0 55 -32 86.5t-91 31.5zM388 331h-235l5 6v-287l-6 9h238q64 0 107 32.5t43 103.5q0 50 -21 80t-56 43t-75 13z" />
    <glyph glyph-name="C" unicode="C" horiz-adv-x="653" 
d="M605 648q12 -8 14 -20.5t-6 -24.5q-7 -9 -18 -10t-21 4q-38 25 -81.5 39t-93.5 14q-61 0 -113.5 -21.5t-91.5 -62t-60.5 -95.5t-21.5 -121q0 -68 22 -123.5t61.5 -95.5t91.5 -61t112 -21q49 0 92.5 14t81.5 38q10 6 21.5 4.5t18.5 -11.5q9 -11 6.5 -23.5t-13.5 -19.5
q-25 -16 -59 -30t-72 -22.5t-76 -8.5q-72 0 -135 26t-112 73.5t-76.5 113.5t-27.5 147q0 78 27 143.5t75 113.5t112 75t137 27q57 0 110 -16t96 -45z" />
    <glyph glyph-name="D" unicode="D" horiz-adv-x="719" 
d="M379 700q74 0 129.5 -28t91.5 -77.5t53.5 -112.5t17.5 -132q0 -96 -31.5 -175.5t-96 -127t-164.5 -47.5h-255q-12 0 -21 9t-9 21v640q0 12 9 21t21 9h255zM369 59q85 0 137 39t76.5 105.5t24.5 146.5q0 58 -13.5 110.5t-42 93t-74 64t-108.5 23.5h-219l7 9v-601l-6 10
h218z" />
    <glyph glyph-name="E" unicode="E" horiz-adv-x="568" 
d="M124 700h367q12 0 21 -8.5t9 -21.5t-9 -21t-21 -8h-344l10 17v-281l-11 13h300q12 0 21 -9t9 -21q0 -13 -9 -21t-21 -8h-298l9 10v-288l-5 6h339q12 0 21 -9t9 -21q0 -13 -9 -21t-21 -8h-367q-12 0 -21 9t-9 21v640q0 12 9 21t21 9z" />
    <glyph glyph-name="F" unicode="F" horiz-adv-x="566" 
d="M125 0q-14 0 -22.5 9t-8.5 21v640q0 12 9 21t21 9h364q13 0 21.5 -8.5t8.5 -21.5q0 -12 -8.5 -20.5t-21.5 -8.5h-337l4 6v-266l-5 9h293q13 0 21.5 -8.5t8.5 -20.5q0 -13 -8.5 -21t-21.5 -8h-295l7 8v-310q0 -12 -8.5 -21t-21.5 -9z" />
    <glyph glyph-name="G" unicode="G" horiz-adv-x="695" 
d="M408 -10q-77 0 -143 27t-114.5 75.5t-75.5 114.5t-27 143t27 143t75.5 114.5t114.5 75.5t143 27q53 0 102.5 -12.5t88.5 -37.5q7 -5 10.5 -11.5t3.5 -13.5q0 -14 -9 -22.5t-19 -8.5q-5 0 -9.5 1.5t-8.5 3.5q-34 19 -74 30t-85 11q-86 0 -153 -39t-105 -107t-38 -154
t38 -154t105 -107t153 -39q45 0 90.5 13t78.5 35l-5 -21v230l15 -14h-173q-13 0 -22 9t-9 21q0 14 9 22t22 8h191q13 0 21.5 -8.5t8.5 -21.5v-241q0 -8 -4 -15t-11 -12q-44 -30 -98.5 -47.5t-113.5 -17.5z" />
    <glyph glyph-name="H" unicode="H" horiz-adv-x="720" 
d="M126 700q12 0 21.5 -9t9.5 -22v-638q-1 -13 -10.5 -22t-21.5 -9q-14 0 -22.5 9t-8.5 22v638q0 13 9 22t23 9zM595 700q14 0 22.5 -9t8.5 -22v-638q-1 -13 -9.5 -22t-22.5 -9q-13 0 -22 9t-9 22v638q0 13 9.5 22t22.5 9zM121 387h475l-1 -58h-478z" />
    <glyph glyph-name="I" unicode="I" horiz-adv-x="250" 
d="M157 31q-1 -13 -10.5 -22t-21.5 -9q-14 0 -22.5 9t-8.5 22v638q0 13 9 22t23 9q12 0 21.5 -9t9.5 -22v-638z" />
    <glyph glyph-name="J" unicode="J" horiz-adv-x="572" 
d="M260 -10q-63 0 -113 35t-76 92q-5 9 -5 16q0 13 10 20.5t20 7.5t16.5 -5t11.5 -12q19 -42 55 -68t81 -26q46 0 81 19.5t54.5 54.5t19.5 80v466q0 12 9.5 21t22.5 9q14 0 22.5 -9t8.5 -21v-466q0 -62 -28 -110.5t-77 -76t-113 -27.5z" />
    <glyph glyph-name="K" unicode="K" horiz-adv-x="675" 
d="M594 -4q-13 0 -22 11l-284 357l47 47l286 -362q7 -10 7 -21q0 -16 -11.5 -24t-22.5 -8zM583 698q12 0 20.5 -9t8.5 -20q0 -12 -9 -21l-454 -425l-8 68l420 397q10 10 22 10zM125 0q-14 0 -22.5 9t-8.5 22v638q0 13 9 22t23 9q13 0 22 -9t9 -22v-638q-1 -13 -10 -22
t-22 -9z" />
    <glyph glyph-name="L" unicode="L" horiz-adv-x="532" 
d="M481 59q12 0 21 -8.5t9 -20.5q0 -13 -9 -21.5t-21 -8.5h-357q-13 0 -21.5 9t-8.5 21v640q0 12 9 21t23 9q12 0 21.5 -9t9.5 -21v-628l-19 17h343z" />
    <glyph glyph-name="M" unicode="M" horiz-adv-x="827" 
d="M124 700q7 0 14.5 -3t12.5 -10l276 -414l-27 1l277 413q11 15 27 13q12 0 20.5 -8.5t8.5 -21.5v-640q0 -12 -9 -21t-22 -9q-14 0 -23 9t-9 21v579l18 -2l-253 -383q-3 -6 -9 -9.5t-14 -2.5q-7 -1 -13.5 2.5t-10.5 9.5l-254 387l19 13v-594q0 -12 -8.5 -21t-21.5 -9t-21 9
t-8 21v640q0 12 8.5 21t21.5 9z" />
    <glyph glyph-name="N" unicode="N" horiz-adv-x="728" 
d="M606 700q13 0 20.5 -8t7.5 -20v-640q0 -15 -9.5 -23.5t-21.5 -8.5q-6 0 -13 2.5t-11 7.5l-446 601l17 9v-593q0 -11 -8 -19t-20 -8q-13 0 -20.5 8t-7.5 19v643q0 15 9 22.5t20 7.5q6 0 13 -2.5t11 -8.5l441 -594l-10 -18v595q0 12 8.5 20t19.5 8z" />
    <glyph glyph-name="O" unicode="O" horiz-adv-x="766" 
d="M718 350q0 -79 -24.5 -144.5t-69.5 -114t-106.5 -75t-134.5 -26.5t-134.5 26.5t-106.5 75t-69.5 114t-24.5 144.5t24.5 144.5t69.5 114t106.5 75t134.5 26.5t134.5 -26.5t106.5 -75t69.5 -114t24.5 -144.5zM654 350q0 89 -34.5 156.5t-95.5 105.5t-141 38
q-79 0 -140.5 -38t-96 -105.5t-34.5 -156.5t34.5 -156.5t96 -105.5t140.5 -38q80 0 141 38t95.5 105.5t34.5 156.5z" />
    <glyph glyph-name="P" unicode="P" horiz-adv-x="596" 
d="M361 700q56 0 99 -25.5t68 -70.5t25 -103t-25 -104.5t-68 -73.5t-99 -27h-212l5 10v-276q0 -12 -9 -21t-21 -9q-14 0 -22 9t-8 21v640q0 12 9 21t21 9h237zM361 354q39 0 68 19.5t45.5 53t16.5 74.5t-16.5 72.5t-45.5 49.5t-68 18h-212l5 9v-302l-6 6h213z" />
    <glyph glyph-name="Q" unicode="Q" horiz-adv-x="775" 
d="M766 -56q11 0 19 -7.5t8 -19.5q0 -17 -17.5 -33t-46 -29.5t-60 -21t-59.5 -7.5q-59 0 -99 13t-70 30t-61 30t-74 13q-18 0 -31.5 -6t-25 -11.5t-24.5 -5.5q-12 0 -20.5 9t-8.5 22q0 18 17 25l172 62l92 -3l-159 -54l13 14q42 0 75 -12t63.5 -28.5t64.5 -29t78 -12.5
q39 0 64.5 11.5t41.5 20.5q15 9 25.5 19.5t22.5 10.5zM718 350q0 -79 -24.5 -144.5t-69.5 -114t-106.5 -75t-134.5 -26.5t-134.5 26.5t-106.5 75t-69.5 114t-24.5 144.5t24.5 144.5t69.5 114t106.5 75t134.5 26.5t134.5 -26.5t106.5 -75t69.5 -114t24.5 -144.5zM654 350
q0 89 -34.5 156.5t-95.5 105.5t-141 38q-79 0 -140.5 -38t-96 -105.5t-34.5 -156.5t34.5 -156.5t96 -105.5t140.5 -38q80 0 141 38t95.5 105.5t34.5 156.5z" />
    <glyph glyph-name="R" unicode="R" horiz-adv-x="670" 
d="M128 0q-15 0 -24.5 9t-9.5 21v640q0 12 9 21t21 9h270q57 0 102 -24.5t70.5 -67.5t25.5 -97q0 -44 -16 -81t-45 -62.5t-65 -37.5l-35 11q37 -3 69 -23.5t51.5 -56t20.5 -85.5q1 -43 4.5 -67t10.5 -36t18 -19q10 -6 13.5 -17t-2.5 -21q-4 -8 -11.5 -11.5t-15.5 -3.5t-16 4
q-14 8 -28.5 25t-24 50t-9.5 92q0 39 -12.5 64t-32 38.5t-43 19t-44.5 5.5h-233l11 14v-283q0 -12 -8 -21t-21 -9zM146 354h251q34 3 64 22.5t48.5 53.5t18.5 79q0 57 -38.5 94.5t-100.5 37.5h-239l7 14v-315z" />
    <glyph glyph-name="S" unicode="S" horiz-adv-x="562" 
d="M287 -10q-76 -1 -132 24t-107 75q-5 4 -8.5 10t-3.5 14q0 12 9.5 22t21.5 10t22 -10q39 -42 88.5 -64t106.5 -22q48 0 85.5 15t59.5 43t22 65q0 46 -25 74.5t-66 47t-91 33.5q-41 12 -78 27.5t-66 38t-45 55.5t-16 80q0 53 28 94t79.5 64.5t119.5 23.5q59 0 113.5 -20
t86.5 -59q15 -16 15 -29q0 -10 -10 -20t-22 -10q-10 0 -17 7q-17 21 -43 37.5t-57.5 25.5t-65.5 9q-47 0 -84.5 -14.5t-59 -41.5t-21.5 -65q0 -42 24 -69t63 -44.5t83 -32.5q43 -12 82.5 -27.5t70 -38.5t48 -58t17.5 -88q0 -51 -29 -92t-79.5 -65t-118.5 -25z" />
    <glyph glyph-name="T" unicode="T" horiz-adv-x="604" 
d="M302 0q-14 0 -22.5 9t-8.5 21v637h62v-637q0 -12 -9 -21t-22 -9zM64 643q-12 0 -21 8t-9 21q0 12 9 20t21 8h476q12 0 21 -8t9 -21t-9 -20.5t-21 -7.5h-476z" />
    <glyph glyph-name="U" unicode="U" horiz-adv-x="713" 
d="M589 700q14 0 22 -8.5t8 -21.5v-414q0 -74 -35 -134t-94 -95.5t-133 -35.5t-133.5 35.5t-94.5 95.5t-35 134v414q0 13 8.5 21.5t23.5 8.5q12 0 21 -8.5t9 -21.5v-414q0 -58 27.5 -104t73.5 -73.5t100 -27.5q56 0 102 27.5t73.5 73.5t27.5 104v414q0 13 8 21.5t21 8.5z
" />
    <glyph glyph-name="V" unicode="V" horiz-adv-x="665" 
d="M600 701q14 0 22.5 -8t8.5 -20q0 -7 -3 -15l-267 -638q-5 -10 -13 -15t-16 -5q-9 0 -17 5t-11 14l-266 637q-1 3 -2 7t-1 9q0 13 9.5 21t19.5 8q21 0 30 -22l250 -598h-18l246 600q10 20 28 20z" />
    <glyph glyph-name="W" unicode="W" horiz-adv-x="966" 
d="M904 702q13 0 22.5 -7.5t9.5 -22.5q0 -5 -2 -13l-221 -640q-3 -9 -11 -14t-16 -5q-10 0 -18 4.5t-12 14.5l-177 438l8 -2l-177 -436q-4 -10 -12.5 -14.5t-17.5 -4.5q-8 0 -15.5 5t-10.5 14l-221 640q-3 8 -3 12q0 15 11 23t22 8q10 0 18 -5t11 -14l201 -586l-11 -1
l174 434q3 9 10.5 14.5t17.5 4.5q10 1 17.5 -4.5t11.5 -14.5l172 -432l-11 -4l200 589q3 9 11 14t19 5z" />
    <glyph glyph-name="X" unicode="X" horiz-adv-x="606" 
d="M543 703q12 0 20.5 -7.5t8.5 -18.5q0 -10 -7 -19l-230 -313l-33 49l217 296q10 13 24 13zM65 703q16 0 25 -12l475 -646q7 -9 7 -18q0 -14 -10 -22t-21 -8q-16 0 -24 12l-476 646q-7 8 -7 18q0 13 9.5 21.5t21.5 8.5zM62 -3q-13 0 -20 8.5t-7 17.5t7 20l230 313l32 -50
l-218 -296q-9 -13 -24 -13z" />
    <glyph glyph-name="Y" unicode="Y" horiz-adv-x="559" 
d="M511 704q13 0 21.5 -9.5t8.5 -20.5q0 -5 -1.5 -9.5t-4.5 -9.5l-235 -323l12 39v-341q0 -12 -9 -21t-22 -9t-21.5 9t-8.5 21v334l5 -24l-229 313q-4 5 -6 10.5t-2 10.5q0 13 10.5 21.5t21.5 8.5q15 0 25 -14l215 -293l-15 2l209 291q10 14 26 14z" />
    <glyph glyph-name="Z" unicode="Z" horiz-adv-x="644" 
d="M565 700q15 0 24 -9t9 -21q0 -10 -6 -18l-455 -603l-2 8h429q12 0 21 -8t9 -20t-9 -20.5t-21 -8.5h-479q-14 0 -22.5 10t-8.5 21q0 10 6 18l453 598l6 -4h-409q-13 0 -21.5 8.5t-8.5 20.5t8.5 20t21.5 8h455z" />
    <glyph glyph-name="bracketleft" unicode="[" horiz-adv-x="397" 
d="M107 -190q-11 0 -19 8t-8 19v836q0 11 8 19t19 8h228q11 0 19 -7.5t8 -18.5t-8 -18.5t-19 -7.5h-205l9 7v-804l-8 13h204q11 0 19 -8.5t8 -19.5q0 -10 -8 -18t-19 -8h-228z" />
    <glyph glyph-name="backslash" unicode="\" horiz-adv-x="523" 
d="M487 -133q-13 0 -19.5 6.5t-11.5 15.5l-441 873q-2 5 -3 8.5t-1 7.5q0 11 8 18t19 7q16 0 22 -6.5t10 -15.5l442 -874q3 -7 3 -15q0 -11 -9 -18t-19 -7z" />
    <glyph glyph-name="bracketright" unicode="]" horiz-adv-x="397" 
d="M290 700q11 0 19 -8t8 -19v-836q0 -11 -8 -19t-19 -8h-228q-11 0 -19 7.5t-8 18.5t8 18.5t19 7.5h205l-9 -7v804l7 -13h-203q-11 0 -19 8.5t-8 19.5t8 18.5t19 7.5h228z" />
    <glyph glyph-name="asciicircum" unicode="^" horiz-adv-x="518" 
d="M86 396q-12 0 -20.5 9t-8.5 21q0 5 2.5 10.5t5.5 11.5l154 277q7 14 16.5 19t23.5 5q15 0 24 -5.5t16 -18.5l154 -278q3 -5 5 -10t2 -11q0 -11 -8 -20.5t-22 -9.5q-10 0 -18 5.5t-13 15.5l-147 271l15 1l-149 -272q-6 -10 -13.5 -15.5t-18.5 -5.5z" />
    <glyph glyph-name="underscore" unicode="_" horiz-adv-x="667" 
d="M86 -160q-13 0 -20.5 8t-7.5 19q0 12 7.5 19.5t20.5 7.5h495q12 0 20 -7.5t8 -19.5q0 -11 -8 -19t-20 -8h-495z" />
    <glyph glyph-name="grave" unicode="`" horiz-adv-x="226" 
d="M159 558q-7 0 -13.5 4t-11.5 9l-79 72q-6 6 -10 12t-4 14q0 14 9 22t21 8q11 0 19 -6t12 -12l68 -88q8 -10 8 -17t-5.5 -12.5t-13.5 -5.5z" />
    <glyph glyph-name="a" unicode="a" horiz-adv-x="606" 
d="M498 511q13 0 21.5 -9t8.5 -22v-450q0 -12 -9 -21t-21 -9q-13 0 -21.5 9t-8.5 21v119l17 8q0 -28 -15.5 -57t-42.5 -54t-63.5 -40.5t-78.5 -15.5q-68 0 -121.5 35t-84 96t-30.5 137q0 78 31 137.5t84 93.5t120 34q43 0 80.5 -15t65.5 -41t43.5 -59.5t15.5 -69.5l-21 15
v127q0 13 8.5 22t21.5 9zM290 46q53 0 94 27.5t64.5 76t23.5 108.5q0 59 -23.5 106t-64.5 75t-94 28q-52 0 -93.5 -27t-65 -74t-23.5 -108q0 -60 23.5 -108.5t64.5 -76t94 -27.5z" />
    <glyph glyph-name="b" unicode="b" horiz-adv-x="606" 
d="M322 523q68 0 120.5 -34t83.5 -93.5t31 -137.5q0 -76 -31 -137t-84 -96t-119 -35q-35 0 -66.5 11t-57.5 29.5t-46 43.5t-32 54l18 13v-113q0 -13 -8.5 -21.5t-21.5 -8.5t-21.5 8.5t-8.5 21.5v681q0 13 8 21.5t22 8.5q13 0 21.5 -8.5t8.5 -21.5v-335l-14 8
q10 31 29.5 56.5t45.5 44.5t57 29.5t65 10.5zM317 467q-54 0 -95 -27t-64.5 -74t-23.5 -108q0 -60 23.5 -108.5t64.5 -76t95 -27.5q53 0 93.5 28t64.5 76.5t24 107.5q0 61 -24 108t-64.5 74t-93.5 27z" />
    <glyph glyph-name="c" unicode="c" horiz-adv-x="518" 
d="M304 523q48 0 88 -10.5t64.5 -28.5t24.5 -39q0 -10 -7 -19.5t-19 -9.5t-19.5 6t-15 14t-21.5 15q-13 6 -37 11t-55 5q-56 0 -101 -28t-71 -75.5t-26 -106.5q0 -60 25 -108t69 -75.5t103 -27.5q40 0 62 7t38 16q19 11 27.5 21.5t22.5 10.5q13 0 19.5 -7.5t6.5 -19.5
q0 -16 -23.5 -35.5t-64.5 -34t-94 -14.5q-75 0 -131.5 35t-88 95.5t-31.5 136.5q0 73 32 133t89.5 96.5t133.5 36.5z" />
    <glyph glyph-name="d" unicode="d" horiz-adv-x="606" 
d="M498 740q13 0 21.5 -8.5t8.5 -21.5v-680q0 -12 -9 -21t-21 -9q-13 0 -21.5 9t-8.5 21v119l17 14q0 -28 -15 -58.5t-42.5 -56.5t-64 -42t-78.5 -16q-67 0 -120.5 35t-84.5 95t-31 137q0 76 31 136.5t84 95t120 34.5q41 0 78 -15t65.5 -41t45 -59.5t16.5 -69.5l-21 15v357
q0 12 8.5 21t21.5 9zM290 46q54 0 94.5 27.5t64 75t23.5 108.5q0 60 -23.5 107.5t-64.5 75t-94 27.5q-52 0 -93.5 -27.5t-65 -75t-23.5 -107.5t23.5 -108t65 -75.5t93.5 -27.5z" />
    <glyph glyph-name="e" unicode="e" horiz-adv-x="565" 
d="M310 -10q-77 0 -136 33t-92 92t-33 138q0 85 33.5 145t87 92.5t113.5 32.5q44 0 85.5 -15.5t74 -46t52 -74.5t21.5 -102q-1 -12 -10 -20.5t-21 -8.5h-401l-12 54h394l-13 -12v20q-4 47 -30 80t-63 50t-77 17q-30 0 -61.5 -12t-57 -37.5t-41.5 -65t-16 -93.5
q0 -59 24 -107t69.5 -76t108.5 -28q35 0 63 10t49 26.5t35 34.5q11 9 22 9q10 0 17.5 -8t7.5 -18q0 -12 -10 -21q-30 -36 -78 -62.5t-105 -26.5z" />
    <glyph glyph-name="f" unicode="f" horiz-adv-x="360" 
d="M264 736q15 0 32.5 -3t30.5 -10.5t13 -22.5q0 -11 -8 -19.5t-18 -8.5t-25 5.5t-32 5.5q-21 0 -36 -9.5t-23 -27t-8 -42.5v-574q0 -12 -8.5 -21t-21.5 -9t-21.5 9t-8.5 21v574q0 64 37.5 98t96.5 34zM302 501q12 0 20 -8t8 -20t-8 -20t-20 -8h-245q-11 0 -19.5 8.5
t-8.5 19.5q0 13 8.5 20.5t19.5 7.5h245z" />
    <glyph glyph-name="g" unicode="g" horiz-adv-x="624" 
d="M292 523q45 0 83 -15.5t66.5 -40t44.5 -52t16 -52.5l-17 24v93q0 13 8.5 22t21.5 9q14 0 22 -9t8 -22v-433q0 -80 -33 -135t-89.5 -83.5t-128.5 -28.5q-35 0 -73.5 9t-66 23t-30.5 29q-8 9 -7.5 17.5t8.5 14.5q10 7 21 1.5t33 -14.5q10 -3 27 -9t40.5 -10.5t49.5 -4.5
q90 0 139.5 51.5t49.5 135.5v96l11 -3q-9 -36 -29.5 -63t-48.5 -45.5t-60.5 -28t-64.5 -9.5q-69 0 -124 35t-87.5 95t-32.5 137q0 76 32.5 136.5t87 95t123.5 34.5zM299 467q-55 0 -98.5 -27.5t-68 -75t-24.5 -107.5t24.5 -108t68 -75.5t98.5 -27.5t98 27t68 74.5t25 109.5
t-25 109.5t-68 74t-98 26.5z" />
    <glyph glyph-name="h" unicode="h" horiz-adv-x="568" 
d="M312 515q63 0 102 -27t57.5 -73t18.5 -102v-283q0 -12 -9 -21t-21 -9q-14 0 -22 9t-8 21v283q0 41 -12.5 74t-40.5 52.5t-75 19.5q-42 0 -79.5 -19.5t-60.5 -52.5t-23 -74v-283q0 -12 -9 -21t-21 -9q-14 0 -22 9t-8 21v680q0 12 8.5 21t21.5 9t21.5 -9t8.5 -21v-324
l-23 -35q2 31 19.5 60.5t45.5 53t62 37t69 13.5z" />
    <glyph glyph-name="i" unicode="i" horiz-adv-x="214" 
d="M137 30q0 -12 -9 -21t-21 -9q-13 0 -21.5 9t-8.5 21v460q0 12 8.5 21t21.5 9t21.5 -9t8.5 -21v-460zM107 587q-21 0 -31.5 9.5t-10.5 27.5v10q0 18 11.5 27.5t31.5 9.5q19 0 29.5 -9.5t10.5 -27.5v-10q0 -18 -10.5 -27.5t-30.5 -9.5z" />
    <glyph glyph-name="j" unicode="j" horiz-adv-x="270" 
d="M152 -46q0 -48 -22.5 -81.5t-55.5 -51.5t-66 -18q-13 0 -20.5 8t-7.5 19v4q0 12 8 19t18 9q23 5 42.5 17t31.5 33t12 51v516q0 12 8.5 21t21.5 9t21.5 -9t8.5 -21v-525zM122 588q-21 0 -31.5 9.5t-10.5 27.5v10q0 18 11.5 27.5t31.5 9.5q19 0 29.5 -9.5t10.5 -27.5v-10
q0 -18 -10.5 -27.5t-30.5 -9.5z" />
    <glyph glyph-name="k" unicode="k" horiz-adv-x="535" 
d="M115 0q-13 0 -21.5 9t-8.5 21v680q0 12 8.5 21t21.5 9t21.5 -9t8.5 -21v-680q0 -12 -8.5 -21t-21.5 -9zM455 513q11 0 20 -9.5t9 -20.5q0 -13 -11 -23l-336 -286l-3 71l300 258q9 10 21 10zM463 0q-13 0 -22 11l-228 242l45 41l226 -241q9 -10 9 -23q0 -14 -11 -22
t-19 -8z" />
    <glyph glyph-name="l" unicode="l" horiz-adv-x="230" 
d="M145 30q0 -12 -9 -21t-21 -9q-13 0 -21.5 9t-8.5 21v680q0 12 9 21t21 9q13 0 21.5 -9t8.5 -21v-680z" />
    <glyph glyph-name="m" unicode="m" horiz-adv-x="912" 
d="M309 515q62 0 106 -32.5t60 -96.5l-14 -4l6 18q13 30 43.5 56.5t69.5 42.5t79 16q63 0 101.5 -27t56 -72.5t17.5 -102.5v-283q0 -12 -8.5 -21t-21.5 -9t-21.5 9t-8.5 21v280q0 41 -13 75t-41 54t-75 20q-41 0 -78.5 -20t-61 -54t-23.5 -75v-280q0 -12 -8.5 -21t-21.5 -9
t-21.5 9t-8.5 21v283q0 41 -12 74t-39 52.5t-73 19.5q-41 0 -77.5 -19.5t-59 -52.5t-22.5 -74v-283q0 -12 -9 -21t-21 -9q-14 0 -22 9t-8 21v448q0 12 8.5 21t21.5 9t21.5 -9t8.5 -21v-93l-27 -37q3 30 19.5 60t43.5 54t61.5 38.5t72.5 14.5z" />
    <glyph glyph-name="n" unicode="n" horiz-adv-x="578" 
d="M320 523q66 0 105.5 -26.5t57 -72t17.5 -100.5v-294q0 -12 -9 -21t-21 -9q-14 0 -22 9t-8 21v291q0 40 -13 73t-42.5 53t-77.5 20q-43 0 -81.5 -20t-62.5 -53t-24 -73v-291q0 -12 -9 -21t-21 -9q-14 0 -22 9t-8 21v448q0 12 8.5 21t21.5 9t21.5 -9t8.5 -21v-84l-23 -36
q2 32 20.5 61.5t47.5 53t64.5 37t71.5 13.5z" />
    <glyph glyph-name="o" unicode="o" horiz-adv-x="604" 
d="M555 256q0 -76 -33 -136.5t-90 -95t-130 -34.5q-71 0 -128.5 34.5t-91 95t-33.5 136.5q0 77 33.5 137t91 95t128.5 35q73 0 130 -35t90 -95t33 -137zM495 256q0 61 -25 108.5t-68.5 75t-99.5 27.5q-54 0 -98 -27.5t-69.5 -75t-25.5 -108.5t25.5 -108t69.5 -74.5t98 -27.5
q56 0 99.5 27.5t68.5 74.5t25 108z" />
    <glyph glyph-name="p" unicode="p" horiz-adv-x="606" 
d="M322 515q68 0 120.5 -33.5t83.5 -92t31 -134.5t-31 -135t-84 -93t-119 -34q-35 0 -66.5 10.5t-57.5 28.5t-46 42.5t-32 53.5l18 13v-311q0 -12 -8.5 -21t-21.5 -9t-21.5 9t-8.5 21v652q0 13 8 22t22 9q13 0 21.5 -9t8.5 -22v-108l-14 8q10 31 29.5 55.5t45.5 42t57 26.5
t65 9zM317 459q-54 0 -95 -26.5t-64.5 -72t-23.5 -105.5q0 -59 23.5 -106t64.5 -73.5t95 -26.5q53 0 93.5 26.5t64.5 73.5t24 106t-24 105t-64.5 72.5t-93.5 26.5z" />
    <glyph glyph-name="q" unicode="q" horiz-adv-x="606" 
d="M498 513q13 0 21.5 -9t8.5 -22v-652q0 -12 -9 -21t-21 -9q-13 0 -21.5 9t-8.5 21v319l17 14q0 -28 -15 -58.5t-42.5 -56.5t-64 -42t-78.5 -16q-67 0 -120.5 35t-84.5 95t-31 137q0 76 31 136.5t84 95t120 34.5q41 0 78 -15t65.5 -41t45 -59.5t16.5 -69.5l-21 15v129
q0 13 8.5 22t21.5 9zM290 46q54 0 94.5 27.5t64 75t23.5 108.5q0 60 -23.5 107.5t-64.5 75t-94 27.5q-52 0 -93.5 -27.5t-65 -75t-23.5 -107.5t23.5 -108t65 -75.5t93.5 -27.5z" />
    <glyph glyph-name="r" unicode="r" horiz-adv-x="385" 
d="M109 0q-14 0 -22 9t-8 21v448q0 12 8.5 21t21.5 9t21.5 -9t8.5 -21v-150l-15 -3q3 35 17.5 69.5t39.5 63.5t59.5 47t77.5 18q18 0 35 -7.5t17 -24.5q0 -15 -8 -23t-19 -8q-9 0 -19.5 5t-27.5 5q-28 0 -56 -16.5t-51 -44.5t-36.5 -62.5t-13.5 -69.5v-247q0 -12 -9 -21
t-21 -9z" />
    <glyph glyph-name="s" unicode="s" horiz-adv-x="469" 
d="M50 81q-8 12 -7.5 23.5t12.5 18.5q8 7 18.5 6t19.5 -10q27 -35 65.5 -56.5t91.5 -21.5q28 0 55.5 9.5t45.5 29t18 49.5q0 31 -18 50t-46.5 30t-60.5 19q-34 9 -66 20.5t-56.5 29t-39.5 42.5t-15 61q0 42 23 74t62.5 50t89.5 18q25 0 54 -6.5t57 -21.5t50 -41
q9 -9 9 -20.5t-10 -20.5q-8 -6 -18.5 -6t-17.5 8q-24 27 -57 41t-71 14q-29 0 -54.5 -9.5t-42.5 -28.5t-17 -50q2 -29 20.5 -47t49 -30t68.5 -22q32 -8 61.5 -19t52 -27.5t36 -41.5t13.5 -63q0 -44 -24.5 -76t-65.5 -49t-91 -17q-54 0 -104.5 21t-89.5 70z" />
    <glyph glyph-name="t" unicode="t" horiz-adv-x="339" 
d="M46 509h233q12 0 20 -8.5t8 -20.5q0 -11 -8 -19t-20 -8h-233q-12 0 -20.5 8.5t-8.5 19.5q0 12 8.5 20t20.5 8zM149 650q13 0 21.5 -9t8.5 -21v-502q0 -28 7.5 -42t19.5 -18.5t24 -4.5q8 0 14.5 2.5t14.5 2.5q9 0 15.5 -7t6.5 -18q0 -14 -16 -23.5t-38 -9.5q-9 0 -27 1.5
t-37 11t-31.5 33.5t-12.5 69v505q0 12 8.5 21t21.5 9z" />
    <glyph glyph-name="u" unicode="u" horiz-adv-x="569" 
d="M461 508q13 0 21.5 -9t8.5 -21v-282q0 -99 -56 -151t-151 -52q-94 0 -149.5 52t-55.5 151v282q0 12 8.5 21t21.5 9t21.5 -9t8.5 -21v-282q0 -72 38.5 -109.5t106.5 -37.5q69 0 108 37.5t39 109.5v282q0 12 8 21t22 9z" />
    <glyph glyph-name="v" unicode="v" horiz-adv-x="529" 
d="M67 522q8 0 16 -5t12 -15l175 -416l-13 -8l179 424q8 20 29 19q10 0 19 -6.5t9 -18.5q0 -6 -1.5 -9.5t-2.5 -7.5l-196 -460q-8 -18 -27 -19q-9 -1 -17.5 4.5t-12.5 14.5l-197 460q-1 2 -2 6t-1 8q0 11 8 20t23 9z" />
    <glyph glyph-name="w" unicode="w" horiz-adv-x="752" 
d="M686 522q11 0 20.5 -8t9.5 -22q0 -3 -1 -7t-2 -6l-154 -460q-4 -9 -12.5 -14.5t-17.5 -4.5q-18 1 -27 19l-141 332l18 -4l-125 -328q-8 -18 -27 -19q-9 -1 -18 4.5t-12 14.5l-158 460q-3 7 -3 13q0 13 8.5 21.5t22.5 8.5q9 0 16.5 -5t10.5 -15l142 -426l-19 1l129 325
q8 19 28 19q10 0 17 -5t11 -14l137 -326l-22 -1l141 427q6 20 28 20z" />
    <glyph glyph-name="x" unicode="x" horiz-adv-x="484" 
d="M65 516q15 0 24 -13l354 -458q7 -8 7 -18q0 -12 -9 -21t-21 -9q-14 0 -25 13l-355 458q-6 7 -6 18q0 13 9.5 21.5t21.5 8.5zM65 -3q-10 0 -19.5 7t-9.5 20q0 11 7 19l169 217l33 -48l-156 -203q-9 -12 -24 -12zM420 516q13 0 20.5 -7.5t7.5 -18.5q0 -5 -1.5 -10t-5.5 -9
l-169 -222l-31 48l154 206q11 13 25 13z" />
    <glyph glyph-name="y" unicode="y" horiz-adv-x="568" 
d="M460 520q13 0 21.5 -9t8.5 -21v-441q0 -81 -32 -136.5t-86 -84t-123 -28.5q-43 0 -79.5 9.5t-59.5 24.5q-12 7 -18 17t-1 21q5 14 15.5 18.5t21.5 -0.5q17 -9 49 -22t73 -13q55 0 95.5 23t62.5 66.5t22 103.5v72l7 -24q-15 -31 -42.5 -55t-63 -37.5t-75.5 -13.5
q-60 0 -99.5 24.5t-58.5 67.5t-19 101v307q0 12 8 21t22 9q13 0 21.5 -9t8.5 -21v-298q0 -70 30.5 -108t99.5 -38q43 0 79 20.5t59 54t23 71.5v298q0 12 8.5 21t21.5 9z" />
    <glyph glyph-name="z" unicode="z" horiz-adv-x="479" 
d="M399 56q12 0 20.5 -8.5t8.5 -19.5q0 -12 -8.5 -20t-20.5 -8h-325q-13 0 -21 10t-8 19q0 6 2 11.5t7 11.5l303 419l4 -9h-262q-12 0 -20.5 8.5t-8.5 19.5q0 12 8.5 20t20.5 8h307q11 0 19.5 -9t8.5 -21q0 -6 -2 -11t-6 -11l-301 -415l-12 5h286z" />
    <glyph glyph-name="braceleft" unicode="{" horiz-adv-x="427" 
d="M363 -200h-4t-5 1q-78 17 -119 44t-55.5 65t-14.5 88l1 84q0 39 -11 72t-35.5 53t-66.5 21h-5q-11 0 -19 7.5t-8 18.5t8 18t19 7h6q43 1 67.5 21t34.5 53t10 71l-1 85q0 48 13.5 80.5t38 54t59 36t77.5 25.5q19 5 26 -3.5t7 -17.5q0 -8 -5.5 -14.5t-14.5 -9.5
q-61 -18 -91.5 -38t-41 -48.5t-10.5 -73.5l1 -82q0 -62 -24.5 -107.5t-70.5 -57.5l-1 2q47 -13 71.5 -58t24.5 -108l-1 -83q0 -43 10.5 -72.5t41 -49t91.5 -38.5q22 -7 19 -27q0 -8 -6.5 -13.5t-15.5 -5.5z" />
    <glyph glyph-name="bar" unicode="|" horiz-adv-x="205" 
d="M132 -151q0 -12 -8.5 -21t-21.5 -9t-21.5 9t-8.5 21v906q0 13 8.5 21.5t22.5 8.5q13 0 21 -8.5t8 -21.5v-906z" />
    <glyph glyph-name="braceright" unicode="}" horiz-adv-x="427" 
d="M65 -200q-13 0 -18.5 8t-5.5 15q0 8 6 14.5t15 9.5q60 18 90.5 38t41 49t10.5 73v82q0 63 25 108.5t69 56.5l2 -1q-47 13 -71.5 58t-24.5 108v82q0 45 -10 73.5t-40.5 49t-91.5 37.5q-22 7 -20 28q2 8 8 13.5t14 5.5q3 0 5.5 -0.5t3.5 -0.5q79 -17 120 -44t55 -65.5
t14 -87.5v-85q0 -39 10.5 -72t35.5 -53t66 -20h6q10 0 18 -8t8 -19q0 -10 -8 -17.5t-18 -7.5h-6q-43 0 -67.5 -20.5t-34.5 -53t-10 -71.5v-85q0 -36 -9 -63.5t-30 -48.5t-58 -41t-92 -44q-1 -1 -3 -1h-5z" />
    <glyph glyph-name="asciitilde" unicode="~" horiz-adv-x="463" 
d="M324 271q-20 0 -45 8.5t-51.5 19.5t-50 19t-40.5 8q-14 0 -24 -8.5t-14 -27.5q0 -11 -7 -17t-16 -6q-11 0 -18.5 7.5t-7.5 23.5q0 20 10 39.5t30.5 33t52.5 13.5q21 0 47 -9t51.5 -20t49.5 -19.5t40 -8.5q14 0 22.5 10t9.5 27q-1 12 6 19t17 7q11 0 19 -7.5t8 -19.5
q0 -41 -22 -66.5t-67 -25.5z" />
    <glyph glyph-name="uni00A0" unicode="&#xa0;" horiz-adv-x="273" 
 />
    <glyph glyph-name="exclamdown" unicode="&#xa1;" horiz-adv-x="185" 
d="M93 316q19 0 20 -22l11 -441q1 -18 -6.5 -30t-24.5 -12t-24.5 12t-6.5 30l10 441q2 22 21 22zM96 511q18 0 26.5 -10t8.5 -28v-22q0 -17 -8.5 -27.5t-26.5 -10.5h-6q-17 0 -26.5 10.5t-9.5 27.5v22q0 18 9.5 28t26.5 10h6z" />
    <glyph glyph-name="cent" unicode="&#xa2;" horiz-adv-x="514" 
d="M317 30q0 -12 -8.5 -21t-21.5 -9t-21.5 9t-8.5 21v70l3 26v447l-3 24v67q0 12 8.5 21t22.5 9q13 0 21 -9t8 -21v-65l-2 -20v-462l2 -20v-67zM295 80q-74 0 -130.5 35t-88 95.5t-31.5 136.5q0 73 32 133t89 96.5t134 36.5q48 0 88 -10.5t64.5 -28.5t24.5 -39
q0 -10 -7.5 -19.5t-20.5 -9.5q-12 0 -19 5.5t-14.5 13.5t-20.5 16q-15 9 -39 13.5t-59 4.5q-53 0 -96.5 -28t-69.5 -75.5t-26 -108.5q0 -62 24.5 -110.5t68.5 -76t101 -27.5q42 0 64 7.5t38 18.5q19 12 28 22.5t23 10.5q12 0 19 -8t7 -20q0 -16 -23.5 -35.5t-64.5 -34
t-95 -14.5z" />
    <glyph glyph-name="sterling" unicode="&#xa3;" horiz-adv-x="614" 
d="M74 331q-13 0 -21 8t-8 20t8 20t21 8h367q12 0 20.5 -8.5t8.5 -20.5t-8.5 -19.5t-20.5 -7.5h-367zM238 77q42 0 85.5 -10.5t85 -21.5t75.5 -11q28 0 47 6.5t32 17.5q7 7 13.5 9t11.5 2q14 0 20 -9t6 -18q0 -13 -8.5 -22t-21.5 -15q-23 -14 -50 -21t-49 -7q-30 0 -62.5 7
t-65.5 15.5t-64.5 15.5t-59.5 7q-25 0 -50 -5t-44 -10.5t-29 -7.5q-14 -3 -26 -9t-19 -6q-12 0 -18.5 8.5t-6.5 17.5q0 11 6.5 19t19.5 12q34 10 61 18t54 13t57 5zM161 23l-44 18q13 6 27 24.5t24.5 47t10.5 64.5t-8.5 71t-19 71t-18.5 75t-8 83q0 70 26.5 122.5t76 81.5
t116.5 29q53 0 102.5 -17.5t79.5 -52.5q10 -9 16 -17.5t6 -16.5q0 -11 -10.5 -21t-22.5 -10q-6 0 -11.5 2t-9.5 7q-25 31 -63.5 49.5t-86.5 18.5q-49 0 -84 -22.5t-54 -62t-19 -90.5q0 -43 8.5 -82.5t19 -75.5t18.5 -69.5t8 -65.5q0 -37 -11.5 -68t-29.5 -54t-39 -39z" />
    <glyph glyph-name="currency" unicode="&#xa4;" horiz-adv-x="493" 
d="M83 483q11 0 21 -10l62 -57q-4 -4 -12 -13l-16 -18t-12 -12l-62 58q-11 11 -11 21q0 7 4.5 14t11.5 12t14 5zM408 482q7 0 14 -4.5t12 -11.5t5 -14q0 -10 -11 -21l-62 -57q-3 4 -11 13t-15.5 17.5t-11.5 11.5l60 57q10 9 20 9zM409 118q-11 0 -21 10l-60 56q4 3 12 12
t16.5 17.5t11.5 12.5l60 -57q10 -10 10 -20q0 -7 -4 -14t-11 -12t-14 -5zM83 118q-6 0 -13 5t-12 12t-5 14q0 10 11 20l63 61l12.5 -12.5t16.5 -17t12 -12.5l-64 -60q-10 -10 -21 -10zM246 136q-43 0 -79.5 22.5t-58 59.5t-21.5 82q0 46 21.5 83t58 59t79.5 22
q45 0 81.5 -22t57.5 -59t21 -83q0 -45 -21 -82t-57.5 -59.5t-81.5 -22.5zM247 187q29 0 52.5 15t37 40.5t13.5 56.5q0 32 -13.5 57.5t-37 41t-52.5 15.5t-52.5 -15.5t-37 -41t-13.5 -57.5q0 -31 13.5 -56.5t37 -40.5t52.5 -15z" />
    <glyph glyph-name="yen" unicode="&#xa5;" horiz-adv-x="559" 
d="M114 155q-13 0 -22 7.5t-9 19.5q0 13 9 20.5t22 7.5l340 -3q13 0 22 -7.5t9 -20.5q0 -12 -9 -19.5t-22 -7.5zM113 288q-13 0 -22 8t-9 20t9 20t22 8l340 -3q13 0 22 -8t9 -20t-9 -20t-22 -8zM511 704q13 0 21.5 -9.5t8.5 -20.5q0 -5 -1.5 -9.5t-4.5 -9.5l-233 -323l11 39
v-341q0 -12 -9 -21t-23 -9t-23 9t-9 21v334l6 -24l-228 313q-4 5 -6 10.5t-2 10.5q0 9 5.5 15.5t13 10.5t15.5 4q15 0 25 -14l213 -300l-14 3l208 297q5 7 12 10.5t14 3.5z" />
    <glyph glyph-name="brokenbar" unicode="&#xa6;" horiz-adv-x="208" 
d="M134 409q0 -12 -8.5 -21t-21.5 -9t-21.5 9t-8.5 21v346q0 13 8.5 21.5t22.5 8.5q13 0 21 -8.5t8 -21.5v-346zM134 -151q0 -12 -8.5 -21t-22.5 -9q-13 0 -21 9t-8 21v346q0 12 8.5 21t21.5 9t21.5 -9t8.5 -21v-346z" />
    <glyph glyph-name="section" unicode="&#xa7;" horiz-adv-x="533" 
d="M488 279q-2 -57 -44.5 -94.5t-122.5 -44.5l20 28q56 -30 83 -60t27 -79q0 -36 -13 -66.5t-37.5 -53.5t-59.5 -35.5t-80 -12.5q-44 0 -84 12.5t-71 30.5t-48 35q-6 7 -10 14.5t-4 17.5q1 10 9 18.5t20 8.5q4 0 10.5 -2t12.5 -8q14 -15 36.5 -31t54 -27t73.5 -11q16 0 38 3
t43.5 13.5t35 31.5t13.5 55q0 28 -20.5 49t-57 37t-85.5 30q-78 22 -122.5 59t-44.5 101q0 21 7.5 44t24.5 44t46 35.5t70 19.5l-5 -24q-52 21 -76 56t-24 76q0 45 18.5 75.5t47.5 49t61.5 26.5t59.5 7q53 -1 90.5 -19.5t63.5 -44.5q8 -7 8 -19q0 -11 -7 -20.5t-23 -9.5
q-8 0 -13 5q-23 20 -53 34.5t-70 14.5q-29 0 -57 -9.5t-46.5 -30t-18.5 -53.5q0 -30 17 -50.5t42 -33.5t50 -21t41 -12q84 -22 129.5 -58t44.5 -101zM241 199l72 -16q36 0 61.5 13.5t39 34t13.5 44.5q0 37 -27.5 58.5t-84.5 39.5l-85 19q-27 2 -52 -10t-40 -32.5t-15 -46.5
q0 -33 26.5 -58t91.5 -46z" />
    <glyph glyph-name="dieresis" unicode="&#xa8;" horiz-adv-x="400" 
d="M286 600q-20 0 -30.5 10.5t-10.5 29.5v10q0 19 11 29.5t31 10.5q19 0 29.5 -10.5t10.5 -29.5v-10q0 -20 -11 -30t-30 -10zM114 600q-20 0 -30.5 10.5t-10.5 29.5v10q0 19 11 29.5t30 10.5q20 0 30.5 -10.5t10.5 -29.5v-10q0 -20 -11 -30t-30 -10z" />
    <glyph glyph-name="copyright" unicode="&#xa9;" horiz-adv-x="795" 
d="M398 -2q-73 0 -137 26.5t-112.5 73.5t-76 112t-27.5 140q0 77 27.5 141t76 111.5t112.5 74t137 26.5q72 0 136 -26.5t112.5 -74t76 -111.5t27.5 -141q0 -75 -27.5 -140t-76 -112t-112.5 -73.5t-136 -26.5zM398 45q62 0 117 22.5t97.5 63.5t66 97t23.5 122t-23.5 121.5
t-66 97t-97.5 64.5t-117 23q-63 0 -118 -23t-97 -64.5t-65.5 -97t-23.5 -121.5t23.5 -122t65.5 -97t97 -63.5t118 -22.5zM416 153q-60 0 -105.5 25.5t-71.5 70.5t-26 101q0 54 25 99t71 71.5t107 26.5q64 0 114 -33q10 -5 12 -17t-5 -21q-6 -9 -16 -9.5t-18 3.5
q-19 12 -41 19t-46 7q-46 0 -80 -19.5t-52 -52t-18 -74.5q0 -43 18 -76t52 -51.5t80 -18.5q24 0 45.5 7t41.5 18q8 5 18 3.5t16 -9.5q7 -9 5 -20.5t-11 -17.5q-25 -15 -54.5 -23.5t-60.5 -8.5z" />
    <glyph glyph-name="ordfeminine" unicode="&#xaa;" horiz-adv-x="350" 
d="M147 391q-42 0 -70 23t-42 60.5t-14 83.5q0 44 17.5 79t48 56t69.5 21q48 0 80 -32.5t32 -95.5l-15 46v45q0 9 7.5 17t19.5 8q13 0 20.5 -7.5t7.5 -17.5v-251q0 -11 -8.5 -18t-19.5 -7q-12 0 -19.5 7.5t-7.5 17.5v48l15 32q0 -25 -15.5 -51.5t-43 -45t-62.5 -18.5z
M161 439q42 0 69 31t27 85q0 53 -25 82t-66 29q-36 0 -63 -31.5t-27 -76.5q0 -49 21 -84t64 -35z" />
    <glyph glyph-name="guillemotleft" unicode="&#xab;" horiz-adv-x="455" 
d="M384 50q-13 0 -23 12l-130 176q-7 9 -7 20t7 19l131 175q9 13 23 13q11 0 20 -7.5t9 -19.5q0 -11 -9 -21l-121 -166l-2 16l124 -168q4 -4 6 -9t2 -10q0 -15 -10.5 -22.5t-19.5 -7.5zM182 50q-13 0 -23 12l-130 176q-7 9 -7 20t7 19l131 175q9 13 23 13q11 0 20 -7.5
t9 -19.5q0 -11 -9 -21l-121 -166l-2 16l124 -168q4 -4 6 -9t2 -10q0 -15 -10.5 -22.5t-19.5 -7.5z" />
    <glyph glyph-name="logicalnot" unicode="&#xac;" horiz-adv-x="650" 
d="M568 149q-13 0 -22.5 9t-9.5 23v189l17 -10h-474q-12 0 -20.5 8.5t-8.5 21.5t8.5 21.5t20.5 8.5h489q14 0 23 -8.5t9 -22.5v-208q0 -14 -9 -23t-23 -9z" />
    <glyph glyph-name="uni00AD" unicode="&#xad;" horiz-adv-x="390" 
d="M87 283q-12 0 -20.5 9t-8.5 22q0 12 8.5 20.5t20.5 8.5h216q12 0 21 -9t9 -22q0 -12 -9 -20.5t-21 -8.5h-216z" />
    <glyph glyph-name="registered" unicode="&#xae;" horiz-adv-x="534" 
d="M207 363q-8 0 -14 5.5t-6 13.5v204q0 5 4.5 10.5t11.5 5.5h73q38 0 59.5 -16.5t21.5 -51.5q0 -25 -15.5 -40t-43.5 -21l-2 8q16 -3 30 -19.5t14 -38.5q1 -15 3.5 -21.5t9.5 -9.5q6 -2 7.5 -6.5t0.5 -9.5q-3 -8 -11.5 -11.5t-19.5 -2.5q-12 1 -21.5 15t-9.5 42q0 17 -8 28
t-26 11h-47l10 9v-85q0 -8 -6 -13.5t-15 -5.5zM270 495q20 0 33.5 9.5t13.5 26.5q0 19 -12 25.5t-32 6.5h-59l14 11v-86l-9 7h51zM267 259q-61 0 -112.5 29t-81.5 80t-30 115t30 114.5t81.5 80t112.5 29.5q62 0 112.5 -29.5t81 -80t30.5 -114.5t-30.5 -115t-81 -80
t-112.5 -29zM267 302q50 0 90.5 23t64 64t23.5 94t-23.5 93.5t-64 64t-90.5 23.5q-51 0 -91.5 -23.5t-64.5 -64t-24 -93.5t24 -94t64.5 -64t91.5 -23z" />
    <glyph glyph-name="macron" unicode="&#xaf;" horiz-adv-x="396" 
d="M78 575q-28 0 -28 26q0 27 28 27h240q28 0 28 -27q0 -26 -28 -26h-240z" />
    <glyph glyph-name="degree" unicode="&#xb0;" horiz-adv-x="332" 
d="M166 420q-40 0 -71.5 20t-50 52.5t-18.5 70.5q0 40 18.5 72.5t50 52t71.5 19.5q41 0 72.5 -19.5t49.5 -52t18 -71.5q0 -38 -18.5 -71t-50 -53t-71.5 -20zM166 469q38 0 63 29t25 66t-25 66t-63 29t-62.5 -28.5t-24.5 -67.5q0 -36 24.5 -65t62.5 -29z" />
    <glyph glyph-name="plusminus" unicode="&#xb1;" horiz-adv-x="523" 
d="M83 395q-13 0 -21.5 8.5t-8.5 21.5q0 12 8.5 20t21.5 8h358q13 0 21.5 -8.5t8.5 -21.5q0 -11 -8.5 -19.5t-21.5 -8.5h-358zM264 246q-13 0 -22.5 9t-9.5 23v299q0 14 9.5 23t23.5 9t22.5 -9t8.5 -23v-298q0 -15 -9 -24t-23 -9zM78 122q-13 0 -21.5 8.5t-8.5 21.5
q0 12 8.5 20t20.5 8h368q13 0 21.5 -7.5t8.5 -21.5t-8.5 -21.5t-21.5 -7.5h-367z" />
    <glyph glyph-name="uni00B2" unicode="&#xb2;" horiz-adv-x="317" 
d="M77 488q-12 0 -19.5 6.5t-7.5 19.5q0 7 3 12.5t9 11.5l82 89q21 26 41.5 50t20.5 50q0 17 -12 28.5t-37 11.5q-18 0 -34 -10.5t-24 -30.5q-2 -7 -8 -11t-14 -4q-10 0 -17 6t-7 14q0 14 13 34.5t37.5 35.5t60.5 15q34 0 55.5 -13t32 -32.5t10.5 -41.5q0 -28 -12 -49
t-29 -39.5t-33 -37.5l-68 -76l-6 8h128q10 0 17.5 -6.5t7.5 -16.5t-7.5 -17t-17.5 -7h-165z" />
    <glyph glyph-name="uni00B3" unicode="&#xb3;" horiz-adv-x="313" 
d="M149 479q-24 0 -48 7.5t-40 19.5q-12 8 -12 22q0 11 6.5 18.5t17.5 7.5q5 0 9.5 -3t11.5 -8q6 -4 21 -9.5t32 -5.5q28 0 49 16.5t21 42.5q0 25 -17 37.5t-43 12.5q-11 0 -23.5 -3t-25.5 -6q-11 -2 -18.5 5.5t-7.5 16.5q0 5 1.5 9.5t5.5 8.5l106 100l8 -10h-119
q-11 0 -18 7.5t-7 17.5t7 17t18 7h146q11 0 18.5 -7t7.5 -17q3 -12 -7 -22l-97 -90l-20 -1q1 3 15 7t22 4q28 0 50.5 -9.5t36 -30t13.5 -53.5t-17 -57.5t-44 -38t-59 -13.5z" />
    <glyph glyph-name="acute" unicode="&#xb4;" horiz-adv-x="281" 
d="M93 559q-5 0 -10.5 5.5t-5.5 12.5q0 6 5 14l61 95q5 8 13.5 15t20.5 7q15 0 24 -8t8 -23q0 -7 -2.5 -12.5t-7.5 -10.5l-75 -79q-6 -7 -14 -11.5t-17 -4.5z" />
    <glyph glyph-name="uni00B5" unicode="&#xb5;" horiz-adv-x="554" 
d="M110 -152q-14 0 -22 8t-8 22v607q0 12 9 21t21 9q13 0 21.5 -9t8.5 -21v-288q0 -41 12 -75t39.5 -54t72.5 -20q31 0 59.5 12.5t51 34t36 48t13.5 54.5v288q0 12 8.5 21t21.5 9t21.5 -9t8.5 -21v-455q0 -12 -9 -21t-21 -9q-14 0 -22 9t-8 21v78l2 -9q-10 -24 -34 -49.5
t-58 -42.5t-75 -17q-27 0 -55.5 11.5t-49.5 33t-27 53.5l13 -8v-202q0 -14 -8 -22t-22 -8z" />
    <glyph glyph-name="paragraph" unicode="&#xb6;" horiz-adv-x="623" 
d="M502 0q-11 0 -18.5 7.5t-7.5 21.5v638l17 -16h-125l15 13v-605q0 -35 -14.5 -62t-41.5 -42t-62 -15q-30 0 -54 10.5t-27 24.5q-4 8 -1.5 17.5t12.5 14.5q7 4 14.5 2.5t15.5 -5.5q8 -5 17 -9t22 -4q29 0 48 21t19 53v234l19 -30h-53q-90 2 -145.5 24t-80.5 69.5t-25 124.5
q0 82 28 128t88.5 65.5t161.5 19.5h179q10 0 17.5 -7.5t7.5 -17.5v-646q0 -14 -7.5 -21.5t-18.5 -7.5z" />
    <glyph glyph-name="periodcentered" unicode="&#xb7;" horiz-adv-x="195" 
d="M94 251q-17 0 -27.5 10.5t-10.5 27.5v22q0 17 10.5 27.5t27.5 10.5h7q17 0 27.5 -10.5t10.5 -27.5v-22q0 -17 -10.5 -27.5t-27.5 -10.5h-7z" />
    <glyph glyph-name="cedilla" unicode="&#xb8;" horiz-adv-x="278" 
d="M78 -143q-6 0 -16 4t-18 11.5t-8 15.5q0 11 7 18l87 109h38l-64 -139q-8 -19 -26 -19z" />
    <glyph glyph-name="uni00B9" unicode="&#xb9;" horiz-adv-x="222" 
d="M139 489q-12 0 -19 7.5t-7 18.5v235l6 -7l-49 -31q-4 -2 -8 -3.5t-9 -1.5q-10 0 -16.5 8t-6.5 17q0 14 13 23l77 46q10 5 20 4q11 -1 17.5 -8.5t6.5 -19.5v-262q0 -11 -7 -18.5t-18 -7.5z" />
    <glyph glyph-name="ordmasculine" unicode="&#xba;" horiz-adv-x="349" 
d="M326 549q0 -45 -20 -80.5t-54.5 -56t-78.5 -20.5q-43 0 -77 20.5t-53.5 56t-19.5 80.5q0 46 19.5 82t53.5 57.5t77 21.5q44 0 78.5 -21.5t54.5 -57.5t20 -82zM274 549q0 48 -27.5 79.5t-73.5 31.5q-45 0 -71.5 -31.5t-26.5 -79.5q0 -45 26.5 -76.5t71.5 -31.5
q46 0 73.5 31.5t27.5 76.5z" />
    <glyph glyph-name="guillemotright" unicode="&#xbb;" horiz-adv-x="448" 
d="M265 465q14 0 23 -12l130 -176q7 -8 7 -20q0 -10 -7 -19l-131 -175q-9 -13 -23 -13q-11 0 -19.5 7.5t-8.5 19.5q0 11 8 21l121 166l3 -16l-125 167q-3 5 -5.5 10t-2.5 10q0 15 10.5 22.5t19.5 7.5zM71 465q14 0 23 -12l130 -176q7 -8 7 -20q0 -10 -7 -19l-131 -175
q-9 -13 -23 -13q-11 0 -19.5 7.5t-8.5 19.5q0 11 8 21l121 166l3 -16l-125 167q-3 5 -5.5 10t-2.5 10q0 15 10.5 22.5t19.5 7.5z" />
    <glyph glyph-name="onequarter" unicode="&#xbc;" horiz-adv-x="687" 
d="M157 386q-12 0 -19 7.5t-7 18.5v235l6 -7l-49 -31q-4 -2 -8 -3.5t-9 -1.5q-10 0 -16.5 8t-6.5 17q0 14 13 23l77 46q10 5 20 4q11 -1 17.5 -8.5t6.5 -19.5v-262q0 -11 -7 -18.5t-18 -7.5zM110 -3q-11 0 -19.5 7.5t-8.5 19.5q0 8 5 16l428 650q9 13 22 13q11 0 19.5 -7
t8.5 -20q0 -7 -5 -16l-428 -650q-9 -13 -22 -13zM556 -5q-10 0 -17.5 7.5t-7.5 18.5v238l14 -10l-110 -139l1 12h179q24 -1 24 -23q0 -24 -24 -24h-206q-10 0 -19 8t-9 20q0 5 1.5 9.5t5.5 9.5l142 182q4 6 11 8.5t13 2.5q12 0 20 -8t8 -20v-266q0 -11 -7.5 -18.5
t-18.5 -7.5z" />
    <glyph glyph-name="onehalf" unicode="&#xbd;" horiz-adv-x="665" 
d="M157 386q-12 0 -19 7.5t-7 18.5v235l6 -7l-49 -31q-4 -2 -8 -3.5t-9 -1.5q-10 0 -16.5 8t-6.5 17q0 14 13 23l77 46q10 5 20 4q11 -1 17.5 -8.5t6.5 -19.5v-262q0 -11 -7 -18.5t-18 -7.5zM101 -3q-11 0 -19.5 7.5t-8.5 19.5q0 8 5 16l428 650q9 13 22 13q11 0 19.5 -7
t8.5 -20q0 -7 -5 -16l-428 -650q-9 -13 -22 -13zM428 0q-12 0 -19.5 6.5t-7.5 19.5q0 7 3 12.5t9 11.5l82 89q21 26 41.5 50t20.5 50q0 17 -12 28.5t-37 11.5q-18 0 -34 -10.5t-24 -30.5q-2 -7 -8 -11t-14 -4q-10 0 -17 6t-7 14q0 14 13 34.5t37.5 35.5t60.5 15
q34 0 55.5 -13t32 -32.5t10.5 -41.5q0 -28 -12 -49t-29 -39.5t-33 -37.5l-68 -76l-6 8h128q10 0 17.5 -6.5t7.5 -16.5t-7.5 -17t-17.5 -7h-165z" />
    <glyph glyph-name="threequarters" unicode="&#xbe;" horiz-adv-x="737" 
d="M150 376q-24 0 -48 7.5t-40 19.5q-12 8 -12 22q0 11 6.5 18.5t17.5 7.5q5 0 9.5 -3t11.5 -8q6 -4 21 -9.5t32 -5.5q28 0 49 16.5t21 42.5q0 25 -17 37.5t-43 12.5q-11 0 -23.5 -3t-25.5 -6q-11 -2 -18.5 5.5t-7.5 16.5q0 5 1.5 9.5t5.5 8.5l106 100l8 -10h-119
q-11 0 -18 7.5t-7 17.5t7 17t18 7h146q11 0 18.5 -7t7.5 -17q3 -12 -7 -22l-97 -90l-20 -1q1 3 15 7t22 4q28 0 50.5 -9.5t36 -30t13.5 -53.5t-17 -57.5t-44 -38t-59 -13.5zM147 -3q-11 0 -19.5 7.5t-8.5 19.5q0 8 5 16l428 650q9 13 22 13q11 0 19.5 -7t8.5 -20
q0 -7 -5 -16l-428 -650q-9 -13 -22 -13zM607 -5q-10 0 -17.5 7.5t-7.5 18.5v238l14 -10l-110 -139l1 12h179q24 -1 24 -23q0 -24 -24 -24h-206q-10 0 -19 8t-9 20q0 5 1.5 9.5t5.5 9.5l142 182q4 6 11 8.5t13 2.5q12 0 20 -8t8 -20v-266q0 -11 -7.5 -18.5t-18.5 -7.5z" />
    <glyph glyph-name="questiondown" unicode="&#xbf;" horiz-adv-x="476" 
d="M297 213q0 -13 -9 -21.5t-21 -8.5q-46 -3 -82 -23t-57 -54.5t-21 -79.5t19.5 -80.5t52.5 -55t74 -19.5q43 0 78.5 19t59.5 50q8 9 19 12t21 -4q13 -8 14.5 -20.5t-7.5 -23.5q-31 -41 -80 -66t-105 -25t-104 26t-76 74t-28 113q0 41 15.5 77.5t44 65.5t65.5 46t80 19
q3 0 -2 -0.5t-10 -6.5v105q0 13 8.5 22t20.5 9q14 0 22 -9t8 -22v-119zM267 549q18 0 26.5 -10t8.5 -28v-22q0 -17 -8.5 -27.5t-26.5 -10.5h-6q-17 0 -26 10.5t-9 27.5v22q0 18 9 28t26 10h6z" />
    <glyph glyph-name="Agrave" unicode="&#xc0;" horiz-adv-x="647" 
d="M328 623l-243 -604q-4 -10 -11 -15t-16 -5q-14 0 -21 7.5t-8 18.5q-1 5 1 12l264 646q5 11 12.5 15.5t17.5 4.5t17.5 -5.5t11.5 -14.5l263 -643q2 -6 2 -12q0 -14 -9 -21.5t-21 -7.5q-10 0 -17.5 5.5t-11.5 14.5l-249 608zM143 202l25 59h310l12 -59h-347zM324 747
q-6 0 -11 2t-11 4l-97 49q-20 11 -20 31q0 13 8.5 21.5t21.5 8.5q9 0 16.5 -3.5t12.5 -7.5l89 -69q5 -4 7.5 -8.5t2.5 -9.5q0 -7 -4.5 -12.5t-14.5 -5.5z" />
    <glyph glyph-name="Aacute" unicode="&#xc1;" horiz-adv-x="647" 
d="M328 623l-243 -604q-4 -10 -11 -15t-16 -5q-14 0 -21 7.5t-8 18.5q-1 5 1 12l264 646q5 11 12.5 15.5t17.5 4.5t17.5 -5.5t11.5 -14.5l263 -643q2 -6 2 -12q0 -14 -9 -21.5t-21 -7.5q-10 0 -17.5 5.5t-11.5 14.5l-249 608zM143 202l25 59h310l12 -59h-347zM327 746
q-10 0 -14.5 5.5t-4.5 12.5q0 5 2.5 9.5t7.5 8.5l89 69q6 4 13 7.5t16 3.5q13 0 21.5 -8.5t8.5 -21.5q0 -10 -5 -18t-14 -13l-98 -49q-5 -2 -10.5 -4t-11.5 -2z" />
    <glyph glyph-name="Acircumflex" unicode="&#xc2;" horiz-adv-x="647" 
d="M328 623l-243 -604q-4 -10 -11 -15t-16 -5q-14 0 -21 7.5t-8 18.5q-1 5 1 12l264 646q5 11 12.5 15.5t17.5 4.5t17.5 -5.5t11.5 -14.5l263 -643q2 -6 2 -12q0 -14 -9 -21.5t-21 -7.5q-10 0 -17.5 5.5t-11.5 14.5l-249 608zM143 202l25 59h310l12 -59h-347zM332 843
l-88 -69q-8 -5 -14.5 -9t-12.5 -4q-7 0 -12 5t-5 10t2 8.5t6 8.5l77 82q7 8 14.5 12.5t18.5 4.5h11q11 0 18.5 -4.5t15.5 -12.5l76 -81q5 -5 6.5 -9t1.5 -8q0 -5 -4.5 -10t-11.5 -5q-6 0 -12.5 3.5t-14.5 9.5l-90 65z" />
    <glyph glyph-name="Atilde" unicode="&#xc3;" horiz-adv-x="647" 
d="M328 623l-243 -604q-4 -10 -11 -15t-16 -5q-14 0 -21 7.5t-8 18.5q-1 5 1 12l264 646q5 11 12.5 15.5t17.5 4.5t17.5 -5.5t11.5 -14.5l263 -643q2 -6 2 -12q0 -14 -9 -21.5t-21 -7.5q-10 0 -17.5 5.5t-11.5 14.5l-249 608zM143 202l25 59h310l12 -59h-347zM195 771
q-13 0 -19.5 11.5t-3.5 32.5q7 32 31.5 49.5t55.5 17.5q25 0 50 -14.5t48.5 -29t40.5 -14.5q14 0 22.5 11t10.5 28q-1 12 5.5 19t16.5 7q15 0 21 -12t3 -31q-3 -22 -14.5 -38t-28 -24.5t-38.5 -8.5q-24 0 -49.5 14.5t-49.5 28.5t-41 14q-14 0 -24 -9.5t-15 -29.5
q1 -10 -6.5 -16t-15.5 -6z" />
    <glyph glyph-name="Adieresis" unicode="&#xc4;" horiz-adv-x="647" 
d="M328 623l-243 -604q-4 -10 -11 -15t-16 -5q-14 0 -21 7.5t-8 18.5q-1 5 1 12l264 646q5 11 12.5 15.5t17.5 4.5t17.5 -5.5t11.5 -14.5l263 -643q2 -6 2 -12q0 -14 -9 -21.5t-21 -7.5q-10 0 -17.5 5.5t-11.5 14.5l-249 608zM143 202l25 59h310l12 -59h-347zM410 775
q-19 0 -30 10.5t-11 29.5v10q0 19 11.5 29.5t30.5 10.5t30 -10.5t11 -29.5v-10q0 -20 -11 -30t-31 -10zM238 775q-19 0 -30 10.5t-11 29.5v10q0 19 11.5 29.5t30.5 10.5t30 -10.5t11 -29.5v-10q0 -20 -11 -30t-31 -10z" />
    <glyph glyph-name="Aring" unicode="&#xc5;" horiz-adv-x="648" 
d="M324 662q-27 0 -50 13t-37.5 35.5t-14.5 49.5t14.5 49.5t37.5 35.5t50 13t50.5 -13t37.5 -35.5t14 -49.5t-14 -49.5t-37.5 -35.5t-50.5 -13zM324 704q25 0 41.5 16.5t16.5 39.5q0 25 -17 41t-41 16q-23 0 -40 -16.5t-17 -40.5q0 -23 17 -39.5t40 -16.5zM328 623
l-243 -604q-4 -10 -11 -15t-16 -5q-14 0 -21 7.5t-8 18.5q-1 5 1 12l264 646q5 11 12.5 15.5t17.5 4.5t17.5 -5.5t11.5 -14.5l263 -643q2 -6 2 -12q0 -14 -9 -21.5t-21 -7.5q-10 0 -17.5 5.5t-11.5 14.5l-249 608zM143 202l25 59h310l12 -59h-347z" />
    <glyph glyph-name="AE" unicode="&#xc6;" horiz-adv-x="919" 
d="M175 227h300l-18 -22v418l15 -18l-412 -594q-9 -13 -24 -13q-10 0 -19 8t-9 21q0 10 5 19l449 641q6 7 13 10t14 3h353q12 0 21 -8.5t9 -21.5t-9 -21t-21 -8h-331l8 10v-275l-7 12h285q12 0 21 -8.5t9 -20.5q0 -13 -9 -21t-21 -8h-287l9 10v-295l-7 14h330q12 0 21 -9
t9 -21q0 -13 -9 -21t-21 -8h-354q-13 0 -22 9t-9 21v152l19 -13h-345z" />
    <glyph glyph-name="Ccedilla" unicode="&#xc7;" horiz-adv-x="653" 
d="M605 648q12 -8 14 -20.5t-6 -24.5q-7 -9 -18 -10t-21 4q-38 25 -81.5 39t-93.5 14q-61 0 -113.5 -21.5t-91.5 -62t-60.5 -95.5t-21.5 -121q0 -68 22 -123.5t61.5 -95.5t91.5 -61t112 -21q49 0 92.5 14t81.5 38q10 6 21.5 4.5t18.5 -11.5q9 -11 6.5 -23.5t-13.5 -19.5
q-25 -16 -59 -30t-72 -22.5t-76 -8.5q-72 0 -135 26t-112 73.5t-76.5 113.5t-27.5 147q0 78 27 143.5t75 113.5t112 75t137 27q57 0 110 -16t96 -45zM338 -143q-6 0 -16 4t-18 11.5t-8 15.5q0 11 7 18l87 109h38l-64 -139q-8 -19 -26 -19z" />
    <glyph glyph-name="Egrave" unicode="&#xc8;" horiz-adv-x="568" 
d="M124 700h367q12 0 21 -8.5t9 -21.5t-9 -21t-21 -8h-344l10 17v-281l-11 13h300q12 0 21 -9t9 -21q0 -13 -9 -21t-21 -8h-298l9 10v-288l-5 6h339q12 0 21 -9t9 -21q0 -13 -9 -21t-21 -8h-367q-12 0 -21 9t-9 21v640q0 12 9 21t21 9zM318 747q-6 0 -11 2t-11 4l-97 49
q-20 11 -20 31q0 13 8.5 21.5t21.5 8.5q9 0 16.5 -3.5t12.5 -7.5l89 -69q5 -4 7.5 -8.5t2.5 -9.5q0 -7 -4.5 -12.5t-14.5 -5.5z" />
    <glyph glyph-name="Eacute" unicode="&#xc9;" horiz-adv-x="568" 
d="M124 700h367q12 0 21 -8.5t9 -21.5t-9 -21t-21 -8h-344l10 17v-281l-11 13h300q12 0 21 -9t9 -21q0 -13 -9 -21t-21 -8h-298l9 10v-288l-5 6h339q12 0 21 -9t9 -21q0 -13 -9 -21t-21 -8h-367q-12 0 -21 9t-9 21v640q0 12 9 21t21 9zM321 746q-10 0 -14.5 5.5t-4.5 12.5
q0 5 2.5 9.5t7.5 8.5l89 69q6 4 13 7.5t16 3.5q13 0 21.5 -8.5t8.5 -21.5q0 -10 -5 -18t-14 -13l-98 -49q-5 -2 -10.5 -4t-11.5 -2z" />
    <glyph glyph-name="Ecircumflex" unicode="&#xca;" horiz-adv-x="568" 
d="M124 700h367q12 0 21 -8.5t9 -21.5t-9 -21t-21 -8h-344l10 17v-281l-11 13h300q12 0 21 -9t9 -21q0 -13 -9 -21t-21 -8h-298l9 10v-288l-5 6h339q12 0 21 -9t9 -21q0 -13 -9 -21t-21 -8h-367q-12 0 -21 9t-9 21v640q0 12 9 21t21 9zM326 843l-88 -69q-8 -5 -14.5 -9
t-12.5 -4q-7 0 -12 5t-5 10t2 8.5t6 8.5l77 82q7 8 14.5 12.5t18.5 4.5h11q11 0 18.5 -4.5t15.5 -12.5l76 -81q5 -5 6.5 -9t1.5 -8q0 -5 -4.5 -10t-11.5 -5q-6 0 -12.5 3.5t-14.5 9.5l-90 65z" />
    <glyph glyph-name="Edieresis" unicode="&#xcb;" horiz-adv-x="568" 
d="M124 700h367q12 0 21 -8.5t9 -21.5t-9 -21t-21 -8h-344l10 17v-281l-11 13h300q12 0 21 -9t9 -21q0 -13 -9 -21t-21 -8h-298l9 10v-288l-5 6h339q12 0 21 -9t9 -21q0 -13 -9 -21t-21 -8h-367q-12 0 -21 9t-9 21v640q0 12 9 21t21 9zM404 775q-19 0 -30 10.5t-11 29.5v10
q0 19 11.5 29.5t30.5 10.5t30 -10.5t11 -29.5v-10q0 -20 -11 -30t-31 -10zM232 775q-19 0 -30 10.5t-11 29.5v10q0 19 11.5 29.5t30.5 10.5t30 -10.5t11 -29.5v-10q0 -20 -11 -30t-31 -10z" />
    <glyph glyph-name="Igrave" unicode="&#xcc;" horiz-adv-x="250" 
d="M157 31q-1 -13 -10.5 -22t-21.5 -9q-14 0 -22.5 9t-8.5 22v638q0 13 9 22t23 9q12 0 21.5 -9t9.5 -22v-638zM126 747q-6 0 -11 2t-11 4l-97 49q-20 11 -20 31q0 13 8.5 21.5t21.5 8.5q9 0 16.5 -3.5t12.5 -7.5l89 -69q5 -4 7.5 -8.5t2.5 -9.5q0 -7 -4.5 -12.5t-14.5 -5.5
z" />
    <glyph glyph-name="Iacute" unicode="&#xcd;" horiz-adv-x="250" 
d="M157 31q-1 -13 -10.5 -22t-21.5 -9q-14 0 -22.5 9t-8.5 22v638q0 13 9 22t23 9q12 0 21.5 -9t9.5 -22v-638zM129 746q-10 0 -14.5 5.5t-4.5 12.5q0 5 2.5 9.5t7.5 8.5l89 69q6 4 13 7.5t16 3.5q13 0 21.5 -8.5t8.5 -21.5q0 -10 -5 -18t-14 -13l-98 -49q-5 -2 -10.5 -4
t-11.5 -2z" />
    <glyph glyph-name="Icircumflex" unicode="&#xce;" horiz-adv-x="250" 
d="M157 31q-1 -13 -10.5 -22t-21.5 -9q-14 0 -22.5 9t-8.5 22v638q0 13 9 22t23 9q12 0 21.5 -9t9.5 -22v-638zM133 843l-88 -69q-8 -5 -14.5 -9t-12.5 -4q-7 0 -12 5t-5 10t2 8.5t6 8.5l77 82q7 8 14.5 12.5t18.5 4.5h11q11 0 18.5 -4.5t15.5 -12.5l76 -81q5 -5 6.5 -9
t1.5 -8q0 -5 -4.5 -10t-11.5 -5q-6 0 -12.5 3.5t-14.5 9.5l-90 65z" />
    <glyph glyph-name="Idieresis" unicode="&#xcf;" horiz-adv-x="250" 
d="M157 31q-1 -13 -10.5 -22t-21.5 -9q-14 0 -22.5 9t-8.5 22v638q0 13 9 22t23 9q12 0 21.5 -9t9.5 -22v-638zM212 775q-19 0 -30 10.5t-11 29.5v10q0 19 11.5 29.5t30.5 10.5t30 -10.5t11 -29.5v-10q0 -20 -11 -30t-31 -10zM40 775q-19 0 -30 10.5t-11 29.5v10
q0 19 11.5 29.5t30.5 10.5t30 -10.5t11 -29.5v-10q0 -20 -11 -30t-31 -10z" />
    <glyph glyph-name="Eth" unicode="&#xd0;" horiz-adv-x="719" 
d="M379 700q74 0 129.5 -28t91.5 -77.5t53.5 -112.5t17.5 -132q0 -96 -31.5 -175.5t-96 -127t-164.5 -47.5h-255q-12 0 -21 9t-9 21v640q0 12 9 21t21 9h255zM369 59q85 0 137 39t76.5 105.5t24.5 146.5q0 58 -13.5 110.5t-42 93t-74 64t-108.5 23.5h-219l7 9v-601l-6 10
h218zM47 323q-14 0 -22 7.5t-8 21.5q0 12 8 19.5t22 7.5h164q14 0 22 -7.5t8 -20.5t-8 -20.5t-22 -7.5h-164z" />
    <glyph glyph-name="Ntilde" unicode="&#xd1;" horiz-adv-x="728" 
d="M606 700q13 0 20.5 -8t7.5 -20v-640q0 -15 -9.5 -23.5t-21.5 -8.5q-6 0 -13 2.5t-11 7.5l-446 601l17 9v-593q0 -11 -8 -19t-20 -8q-13 0 -20.5 8t-7.5 19v643q0 15 9 22.5t20 7.5q6 0 13 -2.5t11 -8.5l441 -594l-10 -18v595q0 12 8.5 20t19.5 8zM235 771
q-13 0 -19.5 11.5t-3.5 32.5q7 32 31.5 49.5t55.5 17.5q25 0 50 -14.5t48.5 -29t40.5 -14.5q14 0 22.5 11t10.5 28q-1 12 5.5 19t16.5 7q15 0 21 -12t3 -31q-3 -22 -14.5 -38t-28 -24.5t-38.5 -8.5q-24 0 -49.5 14.5t-49.5 28.5t-41 14q-14 0 -24 -9.5t-15 -29.5
q1 -10 -6.5 -16t-15.5 -6z" />
    <glyph glyph-name="Ograve" unicode="&#xd2;" horiz-adv-x="766" 
d="M718 350q0 -79 -24.5 -144.5t-69.5 -114t-106.5 -75t-134.5 -26.5t-134.5 26.5t-106.5 75t-69.5 114t-24.5 144.5t24.5 144.5t69.5 114t106.5 75t134.5 26.5t134.5 -26.5t106.5 -75t69.5 -114t24.5 -144.5zM654 350q0 89 -34.5 156.5t-95.5 105.5t-141 38
q-79 0 -140.5 -38t-96 -105.5t-34.5 -156.5t34.5 -156.5t96 -105.5t140.5 -38q80 0 141 38t95.5 105.5t34.5 156.5zM383 747q-6 0 -11 2t-11 4l-97 49q-20 11 -20 31q0 13 8.5 21.5t21.5 8.5q9 0 16.5 -3.5t12.5 -7.5l89 -69q5 -4 7.5 -8.5t2.5 -9.5q0 -7 -4.5 -12.5
t-14.5 -5.5z" />
    <glyph glyph-name="Oacute" unicode="&#xd3;" horiz-adv-x="766" 
d="M718 350q0 -79 -24.5 -144.5t-69.5 -114t-106.5 -75t-134.5 -26.5t-134.5 26.5t-106.5 75t-69.5 114t-24.5 144.5t24.5 144.5t69.5 114t106.5 75t134.5 26.5t134.5 -26.5t106.5 -75t69.5 -114t24.5 -144.5zM654 350q0 89 -34.5 156.5t-95.5 105.5t-141 38
q-79 0 -140.5 -38t-96 -105.5t-34.5 -156.5t34.5 -156.5t96 -105.5t140.5 -38q80 0 141 38t95.5 105.5t34.5 156.5zM386 746q-10 0 -14.5 5.5t-4.5 12.5q0 5 2.5 9.5t7.5 8.5l89 69q6 4 13 7.5t16 3.5q13 0 21.5 -8.5t8.5 -21.5q0 -10 -5 -18t-14 -13l-98 -49
q-5 -2 -10.5 -4t-11.5 -2z" />
    <glyph glyph-name="Ocircumflex" unicode="&#xd4;" horiz-adv-x="766" 
d="M718 350q0 -79 -24.5 -144.5t-69.5 -114t-106.5 -75t-134.5 -26.5t-134.5 26.5t-106.5 75t-69.5 114t-24.5 144.5t24.5 144.5t69.5 114t106.5 75t134.5 26.5t134.5 -26.5t106.5 -75t69.5 -114t24.5 -144.5zM654 350q0 89 -34.5 156.5t-95.5 105.5t-141 38
q-79 0 -140.5 -38t-96 -105.5t-34.5 -156.5t34.5 -156.5t96 -105.5t140.5 -38q80 0 141 38t95.5 105.5t34.5 156.5zM391 843l-88 -69q-8 -5 -14.5 -9t-12.5 -4q-7 0 -12 5t-5 10t2 8.5t6 8.5l77 82q7 8 14.5 12.5t18.5 4.5h11q11 0 18.5 -4.5t15.5 -12.5l76 -81q5 -5 6.5 -9
t1.5 -8q0 -5 -4.5 -10t-11.5 -5q-6 0 -12.5 3.5t-14.5 9.5l-90 65z" />
    <glyph glyph-name="Otilde" unicode="&#xd5;" horiz-adv-x="766" 
d="M718 350q0 -79 -24.5 -144.5t-69.5 -114t-106.5 -75t-134.5 -26.5t-134.5 26.5t-106.5 75t-69.5 114t-24.5 144.5t24.5 144.5t69.5 114t106.5 75t134.5 26.5t134.5 -26.5t106.5 -75t69.5 -114t24.5 -144.5zM654 350q0 89 -34.5 156.5t-95.5 105.5t-141 38
q-79 0 -140.5 -38t-96 -105.5t-34.5 -156.5t34.5 -156.5t96 -105.5t140.5 -38q80 0 141 38t95.5 105.5t34.5 156.5zM254 771q-13 0 -19.5 11.5t-3.5 32.5q7 32 31.5 49.5t55.5 17.5q25 0 50 -14.5t48.5 -29t40.5 -14.5q14 0 22.5 11t10.5 28q-1 12 5.5 19t16.5 7
q15 0 21 -12t3 -31q-3 -22 -14.5 -38t-28 -24.5t-38.5 -8.5q-24 0 -49.5 14.5t-49.5 28.5t-41 14q-14 0 -24 -9.5t-15 -29.5q1 -10 -6.5 -16t-15.5 -6z" />
    <glyph glyph-name="Odieresis" unicode="&#xd6;" horiz-adv-x="766" 
d="M718 350q0 -79 -24.5 -144.5t-69.5 -114t-106.5 -75t-134.5 -26.5t-134.5 26.5t-106.5 75t-69.5 114t-24.5 144.5t24.5 144.5t69.5 114t106.5 75t134.5 26.5t134.5 -26.5t106.5 -75t69.5 -114t24.5 -144.5zM654 350q0 89 -34.5 156.5t-95.5 105.5t-141 38
q-79 0 -140.5 -38t-96 -105.5t-34.5 -156.5t34.5 -156.5t96 -105.5t140.5 -38q80 0 141 38t95.5 105.5t34.5 156.5zM469 775q-19 0 -30 10.5t-11 29.5v10q0 19 11.5 29.5t30.5 10.5t30 -10.5t11 -29.5v-10q0 -20 -11 -30t-31 -10zM297 775q-19 0 -30 10.5t-11 29.5v10
q0 19 11.5 29.5t30.5 10.5t30 -10.5t11 -29.5v-10q0 -20 -11 -30t-31 -10z" />
    <glyph glyph-name="multiply" unicode="&#xd7;" horiz-adv-x="463" 
d="M79 149q-11 0 -20 9t-9 21t9 21l303 301q9 9 22 9q12 0 20.5 -9t8.5 -20t-9 -22l-303 -300q-10 -10 -22 -10zM359 158l-292 300q-8 10 -8 21q0 12 8 20.5t19 8.5q13 0 22 -10l291 -299q10 -9 10 -21q0 -15 -10 -22t-19 -7q-10 0 -21 9z" />
    <glyph glyph-name="Oslash" unicode="&#xd8;" horiz-adv-x="726" 
d="M93 -23q-10 0 -17.5 7.5t-7.5 18.5q0 9 6 18l573 692q6 8 12 10.5t14 2.5q10 0 18 -6.5t8 -17.5t-8 -20l-569 -688q-5 -7 -12 -12t-17 -5zM718 350q0 -79 -24.5 -144.5t-69.5 -114t-106.5 -75t-134.5 -26.5t-134.5 26.5t-106.5 75t-69.5 114t-24.5 144.5t24.5 144.5
t69.5 114t106.5 75t134.5 26.5t134.5 -26.5t106.5 -75t69.5 -114t24.5 -144.5zM654 350q0 89 -34.5 156.5t-95.5 105.5t-141 38q-79 0 -140.5 -38t-96 -105.5t-34.5 -156.5t34.5 -156.5t96 -105.5t140.5 -38q80 0 141 38t95.5 105.5t34.5 156.5z" />
    <glyph glyph-name="Ugrave" unicode="&#xd9;" horiz-adv-x="713" 
d="M589 700q14 0 22 -8.5t8 -21.5v-414q0 -74 -35 -134t-94 -95.5t-133 -35.5t-133.5 35.5t-94.5 95.5t-35 134v414q0 13 8.5 21.5t23.5 8.5q12 0 21 -8.5t9 -21.5v-414q0 -58 27.5 -104t73.5 -73.5t100 -27.5q56 0 102 27.5t73.5 73.5t27.5 104v414q0 13 8 21.5t21 8.5z
M357 747q-6 0 -11 2t-11 4l-97 49q-20 11 -20 31q0 13 8.5 21.5t21.5 8.5q9 0 16.5 -3.5t12.5 -7.5l89 -69q5 -4 7.5 -8.5t2.5 -9.5q0 -7 -4.5 -12.5t-14.5 -5.5z" />
    <glyph glyph-name="Uacute" unicode="&#xda;" horiz-adv-x="713" 
d="M589 700q14 0 22 -8.5t8 -21.5v-414q0 -74 -35 -134t-94 -95.5t-133 -35.5t-133.5 35.5t-94.5 95.5t-35 134v414q0 13 8.5 21.5t23.5 8.5q12 0 21 -8.5t9 -21.5v-414q0 -58 27.5 -104t73.5 -73.5t100 -27.5q56 0 102 27.5t73.5 73.5t27.5 104v414q0 13 8 21.5t21 8.5z
M360 746q-10 0 -14.5 5.5t-4.5 12.5q0 5 2.5 9.5t7.5 8.5l89 69q6 4 13 7.5t16 3.5q13 0 21.5 -8.5t8.5 -21.5q0 -10 -5 -18t-14 -13l-98 -49q-5 -2 -10.5 -4t-11.5 -2z" />
    <glyph glyph-name="Ucircumflex" unicode="&#xdb;" horiz-adv-x="713" 
d="M589 700q14 0 22 -8.5t8 -21.5v-414q0 -74 -35 -134t-94 -95.5t-133 -35.5t-133.5 35.5t-94.5 95.5t-35 134v414q0 13 8.5 21.5t23.5 8.5q12 0 21 -8.5t9 -21.5v-414q0 -58 27.5 -104t73.5 -73.5t100 -27.5q56 0 102 27.5t73.5 73.5t27.5 104v414q0 13 8 21.5t21 8.5z
M364 843l-88 -69q-8 -5 -14.5 -9t-12.5 -4q-7 0 -12 5t-5 10t2 8.5t6 8.5l77 82q7 8 14.5 12.5t18.5 4.5h11q11 0 18.5 -4.5t15.5 -12.5l76 -81q5 -5 6.5 -9t1.5 -8q0 -5 -4.5 -10t-11.5 -5q-6 0 -12.5 3.5t-14.5 9.5l-90 65z" />
    <glyph glyph-name="Udieresis" unicode="&#xdc;" horiz-adv-x="713" 
d="M589 700q14 0 22 -8.5t8 -21.5v-414q0 -74 -35 -134t-94 -95.5t-133 -35.5t-133.5 35.5t-94.5 95.5t-35 134v414q0 13 8.5 21.5t23.5 8.5q12 0 21 -8.5t9 -21.5v-414q0 -58 27.5 -104t73.5 -73.5t100 -27.5q56 0 102 27.5t73.5 73.5t27.5 104v414q0 13 8 21.5t21 8.5z
M443 775q-19 0 -30 10.5t-11 29.5v10q0 19 11.5 29.5t30.5 10.5t30 -10.5t11 -29.5v-10q0 -20 -11 -30t-31 -10zM271 775q-19 0 -30 10.5t-11 29.5v10q0 19 11.5 29.5t30.5 10.5t30 -10.5t11 -29.5v-10q0 -20 -11 -30t-31 -10z" />
    <glyph glyph-name="Yacute" unicode="&#xdd;" horiz-adv-x="559" 
d="M511 704q13 0 21.5 -9.5t8.5 -20.5q0 -5 -1.5 -9.5t-4.5 -9.5l-235 -323l12 39v-341q0 -12 -9 -21t-22 -9t-21.5 9t-8.5 21v334l5 -24l-229 313q-4 5 -6 10.5t-2 10.5q0 13 10.5 21.5t21.5 8.5q15 0 25 -14l215 -293l-15 2l209 291q10 14 26 14zM283 746q-10 0 -14.5 5.5
t-4.5 12.5q0 5 2.5 9.5t7.5 8.5l89 69q6 4 13 7.5t16 3.5q13 0 21.5 -8.5t8.5 -21.5q0 -10 -5 -18t-14 -13l-98 -49q-5 -2 -10.5 -4t-11.5 -2z" />
    <glyph glyph-name="Thorn" unicode="&#xde;" horiz-adv-x="588" 
d="M154 30q0 -12 -9 -21t-21 -9q-14 0 -22 9t-8 21v680q0 12 9 21t21 9q13 0 21.5 -9t8.5 -21v-680zM141 249h212q39 0 68 19t45.5 52t16.5 73q0 42 -16.5 73t-45.5 49t-68 18h-211l-26 60h237q56 0 99 -25.5t67.5 -70.5t24.5 -104q0 -57 -24.5 -103.5t-68 -73.5t-98.5 -27
h-227z" />
    <glyph glyph-name="germandbls" unicode="&#xdf;" horiz-adv-x="606" 
d="M133 0q-14 0 -22 8t-8 22l1 465q0 40 11.5 81.5t36 76t63.5 55.5t94 21q59 0 97 -20.5t57 -53t19 -70.5q0 -20 -10 -45t-30.5 -47t-51.5 -33l-1 4q48 -14 87 -46t62.5 -78.5t23.5 -108.5q0 -71 -29.5 -125t-78.5 -85t-109 -31q-30 0 -56 6.5t-42 19.5q-9 7 -11 18t8 21
q8 10 18.5 10.5t21.5 -8.5q12 -7 28 -12t34 -5q41 0 76.5 23t57.5 64.5t22 95.5q0 64 -24.5 104.5t-62 63t-77.5 31.5q-13 3 -20 12t-7 19q0 9 5 17t15 11q32 9 52.5 25.5t30 37t9.5 37.5q0 37 -30.5 63.5t-84.5 26.5q-39 0 -67 -15.5t-44.5 -41t-24.5 -56t-8 -62.5l-1 -466
q0 -14 -8 -22t-22 -8zM58 444q-12 0 -20.5 8.5t-8.5 20.5t8.5 20t20.5 8h69q13 0 19 -8.5t6 -19.5q0 -13 -6 -21t-19 -8h-69z" />
    <glyph glyph-name="agrave" unicode="&#xe0;" horiz-adv-x="606" 
d="M498 511q13 0 21.5 -9t8.5 -22v-450q0 -12 -9 -21t-21 -9q-13 0 -21.5 9t-8.5 21v119l17 8q0 -28 -15.5 -57t-42.5 -54t-63.5 -40.5t-78.5 -15.5q-68 0 -121.5 35t-84 96t-30.5 137q0 78 31 137.5t84 93.5t120 34q43 0 80.5 -15t65.5 -41t43.5 -59.5t15.5 -69.5l-21 15
v127q0 13 8.5 22t21.5 9zM290 46q53 0 94 27.5t64.5 76t23.5 108.5q0 59 -23.5 106t-64.5 75t-94 28q-52 0 -93.5 -27t-65 -74t-23.5 -108q0 -60 23.5 -108.5t64.5 -76t94 -27.5zM298 558q-7 0 -13.5 4t-11.5 9l-79 72q-6 6 -10 12t-4 14q0 14 9 22t21 8q11 0 19 -6t12 -12
l68 -88q8 -10 8 -17t-5.5 -12.5t-13.5 -5.5z" />
    <glyph glyph-name="aacute" unicode="&#xe1;" horiz-adv-x="606" 
d="M498 511q13 0 21.5 -9t8.5 -22v-450q0 -12 -9 -21t-21 -9q-13 0 -21.5 9t-8.5 21v119l17 8q0 -28 -15.5 -57t-42.5 -54t-63.5 -40.5t-78.5 -15.5q-68 0 -121.5 35t-84 96t-30.5 137q0 78 31 137.5t84 93.5t120 34q43 0 80.5 -15t65.5 -41t43.5 -59.5t15.5 -69.5l-21 15
v127q0 13 8.5 22t21.5 9zM290 46q53 0 94 27.5t64.5 76t23.5 108.5q0 59 -23.5 106t-64.5 75t-94 28q-52 0 -93.5 -27t-65 -74t-23.5 -108q0 -60 23.5 -108.5t64.5 -76t94 -27.5zM283 552q-5 0 -10.5 5.5t-5.5 12.5q0 6 5 14l61 95q5 8 13.5 15t20.5 7q15 0 24 -8t8 -23
q0 -7 -2.5 -12.5t-7.5 -10.5l-75 -79q-6 -7 -14 -11.5t-17 -4.5z" />
    <glyph glyph-name="acircumflex" unicode="&#xe2;" horiz-adv-x="606" 
d="M498 511q13 0 21.5 -9t8.5 -22v-450q0 -12 -9 -21t-21 -9q-13 0 -21.5 9t-8.5 21v119l17 8q0 -28 -15.5 -57t-42.5 -54t-63.5 -40.5t-78.5 -15.5q-68 0 -121.5 35t-84 96t-30.5 137q0 78 31 137.5t84 93.5t120 34q43 0 80.5 -15t65.5 -41t43.5 -59.5t15.5 -69.5l-21 15
v127q0 13 8.5 22t21.5 9zM290 46q53 0 94 27.5t64.5 76t23.5 108.5q0 59 -23.5 106t-64.5 75t-94 28q-52 0 -93.5 -27t-65 -74t-23.5 -108q0 -60 23.5 -108.5t64.5 -76t94 -27.5zM307 662l-87 -73q-7 -6 -12.5 -10t-13.5 -4q-7 0 -12 5t-5 11q0 4 1.5 8t6.5 8l73 80
q11 17 33 17h16q11 0 18.5 -3.5t13.5 -13.5l72 -79q4 -5 5.5 -8.5t1.5 -8.5t-4.5 -10t-11.5 -5q-8 0 -14 4t-13 10l-89 71z" />
    <glyph glyph-name="atilde" unicode="&#xe3;" horiz-adv-x="606" 
d="M498 511q13 0 21.5 -9t8.5 -22v-450q0 -12 -9 -21t-21 -9q-13 0 -21.5 9t-8.5 21v119l17 8q0 -28 -15.5 -57t-42.5 -54t-63.5 -40.5t-78.5 -15.5q-68 0 -121.5 35t-84 96t-30.5 137q0 78 31 137.5t84 93.5t120 34q43 0 80.5 -15t65.5 -41t43.5 -59.5t15.5 -69.5l-21 15
v127q0 13 8.5 22t21.5 9zM290 46q53 0 94 27.5t64.5 76t23.5 108.5q0 59 -23.5 106t-64.5 75t-94 28q-52 0 -93.5 -27t-65 -74t-23.5 -108q0 -60 23.5 -108.5t64.5 -76t94 -27.5zM167 582q-16 0 -20.5 11t-1.5 32q6 33 31 50.5t59 17.5q18 0 36.5 -9t36.5 -20t33.5 -20
t28.5 -9q14 0 22.5 10t9.5 28q-1 11 6 18t17 7q17 0 22 -11.5t3 -30.5q-4 -22 -15.5 -38t-29.5 -24.5t-42 -8.5q-15 0 -33.5 8.5t-36.5 19.5t-34.5 19.5t-30.5 8.5q-13 0 -23 -8.5t-15 -28.5q1 -10 -6.5 -16t-16.5 -6z" />
    <glyph glyph-name="adieresis" unicode="&#xe4;" horiz-adv-x="606" 
d="M498 511q13 0 21.5 -9t8.5 -22v-450q0 -12 -9 -21t-21 -9q-13 0 -21.5 9t-8.5 21v119l17 8q0 -28 -15.5 -57t-42.5 -54t-63.5 -40.5t-78.5 -15.5q-68 0 -121.5 35t-84 96t-30.5 137q0 78 31 137.5t84 93.5t120 34q43 0 80.5 -15t65.5 -41t43.5 -59.5t15.5 -69.5l-21 15
v127q0 13 8.5 22t21.5 9zM290 46q53 0 94 27.5t64.5 76t23.5 108.5q0 59 -23.5 106t-64.5 75t-94 28q-52 0 -93.5 -27t-65 -74t-23.5 -108q0 -60 23.5 -108.5t64.5 -76t94 -27.5zM382 599q-20 0 -30.5 10.5t-10.5 29.5v10q0 19 11 29.5t31 10.5q19 0 29.5 -10.5t10.5 -29.5
v-10q0 -20 -11 -30t-30 -10zM210 599q-20 0 -30.5 10.5t-10.5 29.5v10q0 19 11 29.5t30 10.5q20 0 30.5 -10.5t10.5 -29.5v-10q0 -20 -11 -30t-30 -10z" />
    <glyph glyph-name="aring" unicode="&#xe5;" horiz-adv-x="606" 
d="M498 511q13 0 21.5 -9t8.5 -22v-450q0 -12 -9 -21t-21 -9q-13 0 -21.5 9t-8.5 21v119l17 8q0 -28 -15.5 -57t-42.5 -54t-63.5 -40.5t-78.5 -15.5q-68 0 -121.5 35t-84 96t-30.5 137q0 78 31 137.5t84 93.5t120 34q43 0 80.5 -15t65.5 -41t43.5 -59.5t15.5 -69.5l-21 15
v127q0 13 8.5 22t21.5 9zM290 46q53 0 94 27.5t64.5 76t23.5 108.5q0 59 -23.5 106t-64.5 75t-94 28q-52 0 -93.5 -27t-65 -74t-23.5 -108q0 -60 23.5 -108.5t64.5 -76t94 -27.5zM296 555q-27 0 -50.5 13t-37.5 35.5t-14 49.5t14 49.5t37.5 35.5t50.5 13t50.5 -13
t37.5 -35.5t14 -49.5t-14 -49.5t-37.5 -35.5t-50.5 -13zM296 597q24 0 41 16.5t17 39.5q0 25 -17 41t-41 16q-23 0 -40 -16.5t-17 -40.5q0 -23 17 -39.5t40 -16.5z" />
    <glyph glyph-name="ae" unicode="&#xe6;" horiz-adv-x="903" 
d="M271 523q33 0 64 -7t56 -22.5t39.5 -41.5t14.5 -64v-132l-55 -3v112q0 43 -19 64.5t-46.5 29.5t-54.5 8q-34 0 -65 -13t-56 -32.5t-40 -41.5q-10 -12 -24 -12q-10 0 -17.5 7.5t-7.5 18.5q0 4 1.5 9t4.5 10q21 27 52 52t70.5 41.5t82.5 16.5zM210 -10q-38 0 -74.5 16.5
t-61 50t-24.5 84.5q0 55 33.5 92.5t95 57t144.5 19.5h480l-12 -12v20q-4 47 -30 80t-63 50t-77 17q-30 0 -61 -12t-57 -37.5t-42 -65t-16 -93.5q0 -59 24 -107t69.5 -76t108.5 -28q35 0 63 10t49.5 26.5t35.5 34.5q10 9 21 9t18 -8t7 -18q0 -12 -10 -21q-29 -36 -77.5 -62.5
t-104.5 -26.5q-78 0 -137 33t-92 92t-33 138q0 85 34 145t87 92.5t113 32.5q44 0 85.5 -15.5t74 -46t52 -74.5t21.5 -102q0 -12 -9 -20.5t-21 -8.5h-503q-64 0 -111.5 -13t-73.5 -39t-26 -63q0 -32 16 -53t40.5 -31.5t47.5 -10.5q44 0 82.5 19.5t67 47t39.5 50.5l30 -44
q-17 -26 -47.5 -56t-74 -51.5t-101.5 -21.5z" />
    <glyph glyph-name="ccedilla" unicode="&#xe7;" horiz-adv-x="518" 
d="M304 523q48 0 88 -10.5t64.5 -28.5t24.5 -39q0 -10 -7 -19.5t-19 -9.5t-19.5 6t-15 14t-21.5 15q-13 6 -37 11t-55 5q-56 0 -101 -28t-71 -75.5t-26 -106.5q0 -60 25 -108t69 -75.5t103 -27.5q40 0 62 7t38 16q19 11 27.5 21.5t22.5 10.5q13 0 19.5 -7.5t6.5 -19.5
q0 -16 -23.5 -35.5t-64.5 -34t-94 -14.5q-75 0 -131.5 35t-88 95.5t-31.5 136.5q0 73 32 133t89.5 96.5t133.5 36.5zM239 -143q-7 0 -17 4t-18 11t-8 16q0 11 7 18l87 109h39l-64 -139q-9 -19 -26 -19z" />
    <glyph glyph-name="egrave" unicode="&#xe8;" horiz-adv-x="565" 
d="M310 -10q-77 0 -136 33t-92 92t-33 138q0 85 33.5 145t87 92.5t113.5 32.5q44 0 85.5 -15.5t74 -46t52 -74.5t21.5 -102q-1 -12 -10 -20.5t-21 -8.5h-401l-12 54h394l-13 -12v20q-4 47 -30 80t-63 50t-77 17q-30 0 -61.5 -12t-57 -37.5t-41.5 -65t-16 -93.5
q0 -59 24 -107t69.5 -76t108.5 -28q35 0 63 10t49 26.5t35 34.5q11 9 22 9q10 0 17.5 -8t7.5 -18q0 -12 -10 -21q-30 -36 -78 -62.5t-105 -26.5zM289 558q-7 0 -13.5 4t-11.5 9l-79 72q-6 6 -10 12t-4 14q0 14 9 22t21 8q11 0 19 -6t12 -12l68 -88q8 -10 8 -17t-5.5 -12.5
t-13.5 -5.5z" />
    <glyph glyph-name="eacute" unicode="&#xe9;" horiz-adv-x="565" 
d="M310 -10q-77 0 -136 33t-92 92t-33 138q0 85 33.5 145t87 92.5t113.5 32.5q44 0 85.5 -15.5t74 -46t52 -74.5t21.5 -102q-1 -12 -10 -20.5t-21 -8.5h-401l-12 54h394l-13 -12v20q-4 47 -30 80t-63 50t-77 17q-30 0 -61.5 -12t-57 -37.5t-41.5 -65t-16 -93.5
q0 -59 24 -107t69.5 -76t108.5 -28q35 0 63 10t49 26.5t35 34.5q11 9 22 9q10 0 17.5 -8t7.5 -18q0 -12 -10 -21q-30 -36 -78 -62.5t-105 -26.5zM275 552q-5 0 -10.5 5.5t-5.5 12.5q0 6 5 14l61 95q5 8 13.5 15t20.5 7q15 0 24 -8t8 -23q0 -7 -2.5 -12.5t-7.5 -10.5l-75 -79
q-6 -7 -14 -11.5t-17 -4.5z" />
    <glyph glyph-name="ecircumflex" unicode="&#xea;" horiz-adv-x="565" 
d="M310 -10q-77 0 -136 33t-92 92t-33 138q0 85 33.5 145t87 92.5t113.5 32.5q44 0 85.5 -15.5t74 -46t52 -74.5t21.5 -102q-1 -12 -10 -20.5t-21 -8.5h-401l-12 54h394l-13 -12v20q-4 47 -30 80t-63 50t-77 17q-30 0 -61.5 -12t-57 -37.5t-41.5 -65t-16 -93.5
q0 -59 24 -107t69.5 -76t108.5 -28q35 0 63 10t49 26.5t35 34.5q11 9 22 9q10 0 17.5 -8t7.5 -18q0 -12 -10 -21q-30 -36 -78 -62.5t-105 -26.5zM298 662l-87 -73q-7 -6 -12.5 -10t-13.5 -4q-7 0 -12 5t-5 11q0 4 1.5 8t6.5 8l73 80q11 17 33 17h16q11 0 18.5 -3.5
t13.5 -13.5l72 -79q4 -5 5.5 -8.5t1.5 -8.5t-4.5 -10t-11.5 -5q-8 0 -14 4t-13 10l-89 71z" />
    <glyph glyph-name="edieresis" unicode="&#xeb;" horiz-adv-x="565" 
d="M310 -10q-77 0 -136 33t-92 92t-33 138q0 85 33.5 145t87 92.5t113.5 32.5q44 0 85.5 -15.5t74 -46t52 -74.5t21.5 -102q-1 -12 -10 -20.5t-21 -8.5h-401l-12 54h394l-13 -12v20q-4 47 -30 80t-63 50t-77 17q-30 0 -61.5 -12t-57 -37.5t-41.5 -65t-16 -93.5
q0 -59 24 -107t69.5 -76t108.5 -28q35 0 63 10t49 26.5t35 34.5q11 9 22 9q10 0 17.5 -8t7.5 -18q0 -12 -10 -21q-30 -36 -78 -62.5t-105 -26.5zM373 599q-20 0 -30.5 10.5t-10.5 29.5v10q0 19 11 29.5t31 10.5q19 0 29.5 -10.5t10.5 -29.5v-10q0 -20 -11 -30t-30 -10z
M201 599q-20 0 -30.5 10.5t-10.5 29.5v10q0 19 11 29.5t30 10.5q20 0 30.5 -10.5t10.5 -29.5v-10q0 -20 -11 -30t-30 -10z" />
    <glyph glyph-name="igrave" unicode="&#xec;" horiz-adv-x="214" 
d="M137 30q0 -12 -9 -21t-21 -9q-13 0 -21.5 9t-8.5 21v460q0 12 8.5 21t21.5 9t21.5 -9t8.5 -21v-460zM109 558q-7 0 -13.5 4t-11.5 9l-79 72q-6 6 -10 12t-4 14q0 14 9 22t21 8q11 0 19 -6t12 -12l68 -88q8 -10 8 -17t-5.5 -12.5t-13.5 -5.5z" />
    <glyph glyph-name="iacute" unicode="&#xed;" horiz-adv-x="214" 
d="M137 30q0 -12 -9 -21t-21 -9q-13 0 -21.5 9t-8.5 21v460q0 12 8.5 21t21.5 9t21.5 -9t8.5 -21v-460zM94 552q-5 0 -10.5 5.5t-5.5 12.5q0 6 5 14l61 95q5 8 13.5 15t20.5 7q15 0 24 -8t8 -23q0 -7 -2.5 -12.5t-7.5 -10.5l-75 -79q-6 -7 -14 -11.5t-17 -4.5z" />
    <glyph glyph-name="icircumflex" unicode="&#xee;" horiz-adv-x="214" 
d="M137 30q0 -12 -9 -21t-21 -9q-13 0 -21.5 9t-8.5 21v460q0 12 8.5 21t21.5 9t21.5 -9t8.5 -21v-460zM118 662l-87 -73q-7 -6 -12.5 -10t-13.5 -4q-7 0 -12 5t-5 11q0 4 1.5 8t6.5 8l73 80q11 17 33 17h16q11 0 18.5 -3.5t13.5 -13.5l72 -79q4 -5 5.5 -8.5t1.5 -8.5
t-4.5 -10t-11.5 -5q-8 0 -14 4t-13 10l-89 71z" />
    <glyph glyph-name="idieresis" unicode="&#xef;" horiz-adv-x="214" 
d="M137 30q0 -12 -9 -21t-21 -9q-13 0 -21.5 9t-8.5 21v460q0 12 8.5 21t21.5 9t21.5 -9t8.5 -21v-460zM193 599q-20 0 -30.5 10.5t-10.5 29.5v10q0 19 11 29.5t31 10.5q19 0 29.5 -10.5t10.5 -29.5v-10q0 -20 -11 -30t-30 -10zM21 599q-20 0 -30.5 10.5t-10.5 29.5v10
q0 19 11 29.5t30 10.5q20 0 30.5 -10.5t10.5 -29.5v-10q0 -20 -11 -30t-30 -10z" />
    <glyph glyph-name="eth" unicode="&#xf0;" horiz-adv-x="573" 
d="M286 -3q-65 0 -119 36t-86 96t-32 132q0 54 18.5 100.5t51 82t75 55t88.5 19.5q54 0 93 -23t64.5 -59.5t38.5 -78.5l-29 15q-7 56 -25.5 106t-49 91.5t-74.5 70t-103 40.5q-11 3 -18 10.5t-7 18.5q0 13 6.5 22t19.5 9q8 0 13 -2q70 -15 122.5 -52.5t89 -88t59 -106
t32.5 -109.5t10 -98q0 -85 -32 -150t-85.5 -101t-120.5 -36zM286 55q50 0 90 28.5t64 75.5t24 102q0 53 -23.5 98t-64 73t-90.5 28q-49 0 -89.5 -26.5t-64 -71.5t-23.5 -101q0 -55 24 -102t64.5 -75.5t88.5 -28.5zM222 547q-12 -3 -22 0.5t-13 14.5q-3 12 2.5 20.5
t16.5 11.5l109 37l42 15l100 33q11 4 21 0t13 -15q4 -12 -1.5 -20.5t-17.5 -11.5l-79 -27l-35 -13z" />
    <glyph glyph-name="ntilde" unicode="&#xf1;" horiz-adv-x="578" 
d="M320 523q66 0 105.5 -26.5t57 -72t17.5 -100.5v-294q0 -12 -9 -21t-21 -9q-14 0 -22 9t-8 21v291q0 40 -13 73t-42.5 53t-77.5 20q-43 0 -81.5 -20t-62.5 -53t-24 -73v-291q0 -12 -9 -21t-21 -9q-14 0 -22 9t-8 21v448q0 12 8.5 21t21.5 9t21.5 -9t8.5 -21v-84l-23 -36
q2 32 20.5 61.5t47.5 53t64.5 37t71.5 13.5zM172 582q-16 0 -20.5 11t-1.5 32q6 33 31 50.5t59 17.5q18 0 36.5 -9t36.5 -20t33.5 -20t28.5 -9q14 0 22.5 10t9.5 28q-1 11 6 18t17 7q17 0 22 -11.5t3 -30.5q-4 -22 -15.5 -38t-29.5 -24.5t-42 -8.5q-15 0 -33.5 8.5
t-36.5 19.5t-34.5 19.5t-30.5 8.5q-13 0 -23 -8.5t-15 -28.5q1 -10 -6.5 -16t-16.5 -6z" />
    <glyph glyph-name="ograve" unicode="&#xf2;" horiz-adv-x="604" 
d="M555 256q0 -76 -33 -136.5t-90 -95t-130 -34.5q-71 0 -128.5 34.5t-91 95t-33.5 136.5q0 77 33.5 137t91 95t128.5 35q73 0 130 -35t90 -95t33 -137zM495 256q0 61 -25 108.5t-68.5 75t-99.5 27.5q-54 0 -98 -27.5t-69.5 -75t-25.5 -108.5t25.5 -108t69.5 -74.5t98 -27.5
q56 0 99.5 27.5t68.5 74.5t25 108zM304 566q-7 0 -13.5 4t-11.5 9l-79 72q-6 6 -10 12t-4 14q0 14 9 22t21 8q11 0 19 -6t12 -12l68 -88q8 -10 8 -17t-5.5 -12.5t-13.5 -5.5z" />
    <glyph glyph-name="oacute" unicode="&#xf3;" horiz-adv-x="604" 
d="M555 256q0 -76 -33 -136.5t-90 -95t-130 -34.5q-71 0 -128.5 34.5t-91 95t-33.5 136.5q0 77 33.5 137t91 95t128.5 35q73 0 130 -35t90 -95t33 -137zM495 256q0 61 -25 108.5t-68.5 75t-99.5 27.5q-54 0 -98 -27.5t-69.5 -75t-25.5 -108.5t25.5 -108t69.5 -74.5t98 -27.5
q56 0 99.5 27.5t68.5 74.5t25 108zM290 559q-5 0 -10.5 5.5t-5.5 12.5q0 6 5 14l61 95q5 8 13.5 15t20.5 7q15 0 24 -8t8 -23q0 -7 -2.5 -12.5t-7.5 -10.5l-75 -79q-6 -7 -14 -11.5t-17 -4.5z" />
    <glyph glyph-name="ocircumflex" unicode="&#xf4;" horiz-adv-x="604" 
d="M555 256q0 -76 -33 -136.5t-90 -95t-130 -34.5q-71 0 -128.5 34.5t-91 95t-33.5 136.5q0 77 33.5 137t91 95t128.5 35q73 0 130 -35t90 -95t33 -137zM495 256q0 61 -25 108.5t-68.5 75t-99.5 27.5q-54 0 -98 -27.5t-69.5 -75t-25.5 -108.5t25.5 -108t69.5 -74.5t98 -27.5
q56 0 99.5 27.5t68.5 74.5t25 108zM313 669l-87 -73q-7 -6 -12.5 -10t-13.5 -4q-7 0 -12 5t-5 11q0 4 1.5 8t6.5 8l73 80q11 17 33 17h16q11 0 18.5 -3.5t13.5 -13.5l72 -79q4 -5 5.5 -8.5t1.5 -8.5t-4.5 -10t-11.5 -5q-8 0 -14 4t-13 10l-89 71z" />
    <glyph glyph-name="otilde" unicode="&#xf5;" horiz-adv-x="604" 
d="M555 256q0 -76 -33 -136.5t-90 -95t-130 -34.5q-71 0 -128.5 34.5t-91 95t-33.5 136.5q0 77 33.5 137t91 95t128.5 35q73 0 130 -35t90 -95t33 -137zM495 256q0 61 -25 108.5t-68.5 75t-99.5 27.5q-54 0 -98 -27.5t-69.5 -75t-25.5 -108.5t25.5 -108t69.5 -74.5t98 -27.5
q56 0 99.5 27.5t68.5 74.5t25 108zM173 589q-16 0 -20.5 11t-1.5 32q6 33 31 50.5t59 17.5q18 0 36.5 -9t36.5 -20t33.5 -20t28.5 -9q14 0 22.5 10t9.5 28q-1 11 6 18t17 7q17 0 22 -11.5t3 -30.5q-4 -22 -15.5 -38t-29.5 -24.5t-42 -8.5q-15 0 -33.5 8.5t-36.5 19.5
t-34.5 19.5t-30.5 8.5q-13 0 -23 -8.5t-15 -28.5q1 -10 -6.5 -16t-16.5 -6z" />
    <glyph glyph-name="odieresis" unicode="&#xf6;" horiz-adv-x="604" 
d="M555 256q0 -76 -33 -136.5t-90 -95t-130 -34.5q-71 0 -128.5 34.5t-91 95t-33.5 136.5q0 77 33.5 137t91 95t128.5 35q73 0 130 -35t90 -95t33 -137zM495 256q0 61 -25 108.5t-68.5 75t-99.5 27.5q-54 0 -98 -27.5t-69.5 -75t-25.5 -108.5t25.5 -108t69.5 -74.5t98 -27.5
q56 0 99.5 27.5t68.5 74.5t25 108zM389 607q-20 0 -30.5 10.5t-10.5 29.5v10q0 19 11 29.5t31 10.5q19 0 29.5 -10.5t10.5 -29.5v-10q0 -20 -11 -30t-30 -10zM217 607q-20 0 -30.5 10.5t-10.5 29.5v10q0 19 11 29.5t30 10.5q20 0 30.5 -10.5t10.5 -29.5v-10q0 -20 -11 -30
t-30 -10z" />
    <glyph glyph-name="divide" unicode="&#xf7;" horiz-adv-x="563" 
d="M233 503q0 20 13 33.5t32 13.5q18 0 31.5 -13.5t13.5 -33.5q0 -18 -13.5 -31t-31.5 -13q-19 0 -32 13t-13 31zM233 157q0 19 13 32.5t32 13.5q18 0 31.5 -13.5t13.5 -32.5q0 -18 -13.5 -31.5t-31.5 -13.5q-19 0 -32 13.5t-13 31.5zM81 304q-14 0 -22.5 8.5t-8.5 21.5
q0 11 8.5 19t22.5 8h401q14 0 22.5 -8t8.5 -21q0 -11 -8.5 -19.5t-22.5 -8.5h-401z" />
    <glyph glyph-name="oslash" unicode="&#xf8;" horiz-adv-x="604" 
d="M86 -27q-11 0 -19.5 8t-8.5 19t7 19l437 511q8 11 21 11q11 0 19.5 -8.5t8.5 -19.5t-7 -19l-438 -511q-8 -10 -20 -10zM555 256q0 -76 -33 -136.5t-90 -95t-130 -34.5q-71 0 -128.5 34.5t-91 95t-33.5 136.5q0 77 33.5 137t91 95t128.5 35q73 0 130 -35t90 -95t33 -137z
M495 256q0 61 -25 108.5t-68.5 75t-99.5 27.5q-54 0 -98 -27.5t-69.5 -75t-25.5 -108.5t25.5 -108t69.5 -74.5t98 -27.5q56 0 99.5 27.5t68.5 74.5t25 108z" />
    <glyph glyph-name="ugrave" unicode="&#xf9;" horiz-adv-x="569" 
d="M461 508q13 0 21.5 -9t8.5 -21v-282q0 -99 -56 -151t-151 -52q-94 0 -149.5 52t-55.5 151v282q0 12 8.5 21t21.5 9t21.5 -9t8.5 -21v-282q0 -72 38.5 -109.5t106.5 -37.5q69 0 108 37.5t39 109.5v282q0 12 8 21t22 9zM287 558q-7 0 -13.5 4t-11.5 9l-79 72q-6 6 -10 12
t-4 14q0 14 9 22t21 8q11 0 19 -6t12 -12l68 -88q8 -10 8 -17t-5.5 -12.5t-13.5 -5.5z" />
    <glyph glyph-name="uacute" unicode="&#xfa;" horiz-adv-x="569" 
d="M461 508q13 0 21.5 -9t8.5 -21v-282q0 -99 -56 -151t-151 -52q-94 0 -149.5 52t-55.5 151v282q0 12 8.5 21t21.5 9t21.5 -9t8.5 -21v-282q0 -72 38.5 -109.5t106.5 -37.5q69 0 108 37.5t39 109.5v282q0 12 8 21t22 9zM273 552q-5 0 -10.5 5.5t-5.5 12.5q0 6 5 14l61 95
q5 8 13.5 15t20.5 7q15 0 24 -8t8 -23q0 -7 -2.5 -12.5t-7.5 -10.5l-75 -79q-6 -7 -14 -11.5t-17 -4.5z" />
    <glyph glyph-name="ucircumflex" unicode="&#xfb;" horiz-adv-x="569" 
d="M461 508q13 0 21.5 -9t8.5 -21v-282q0 -99 -56 -151t-151 -52q-94 0 -149.5 52t-55.5 151v282q0 12 8.5 21t21.5 9t21.5 -9t8.5 -21v-282q0 -72 38.5 -109.5t106.5 -37.5q69 0 108 37.5t39 109.5v282q0 12 8 21t22 9zM296 662l-87 -73q-7 -6 -12.5 -10t-13.5 -4
q-7 0 -12 5t-5 11q0 4 1.5 8t6.5 8l73 80q11 17 33 17h16q11 0 18.5 -3.5t13.5 -13.5l72 -79q4 -5 5.5 -8.5t1.5 -8.5t-4.5 -10t-11.5 -5q-8 0 -14 4t-13 10l-89 71z" />
    <glyph glyph-name="udieresis" unicode="&#xfc;" horiz-adv-x="569" 
d="M461 508q13 0 21.5 -9t8.5 -21v-282q0 -99 -56 -151t-151 -52q-94 0 -149.5 52t-55.5 151v282q0 12 8.5 21t21.5 9t21.5 -9t8.5 -21v-282q0 -72 38.5 -109.5t106.5 -37.5q69 0 108 37.5t39 109.5v282q0 12 8 21t22 9zM371 599q-20 0 -30.5 10.5t-10.5 29.5v10
q0 19 11 29.5t31 10.5q19 0 29.5 -10.5t10.5 -29.5v-10q0 -20 -11 -30t-30 -10zM199 599q-20 0 -30.5 10.5t-10.5 29.5v10q0 19 11 29.5t30 10.5q20 0 30.5 -10.5t10.5 -29.5v-10q0 -20 -11 -30t-30 -10z" />
    <glyph glyph-name="yacute" unicode="&#xfd;" horiz-adv-x="568" 
d="M460 520q13 0 21.5 -9t8.5 -21v-441q0 -81 -32 -136.5t-86 -84t-123 -28.5q-43 0 -79.5 9.5t-59.5 24.5q-12 7 -18 17t-1 21q5 14 15.5 18.5t21.5 -0.5q17 -9 49 -22t73 -13q55 0 95.5 23t62.5 66.5t22 103.5v72l7 -24q-15 -31 -42.5 -55t-63 -37.5t-75.5 -13.5
q-60 0 -99.5 24.5t-58.5 67.5t-19 101v307q0 12 8 21t22 9q13 0 21.5 -9t8.5 -21v-298q0 -70 30.5 -108t99.5 -38q43 0 79 20.5t59 54t23 71.5v298q0 12 8.5 21t21.5 9zM272 552q-5 0 -10.5 5.5t-5.5 12.5q0 6 5 14l61 95q5 8 13.5 15t20.5 7q15 0 24 -8t8 -23
q0 -7 -2.5 -12.5t-7.5 -10.5l-75 -79q-6 -7 -14 -11.5t-17 -4.5z" />
    <glyph glyph-name="thorn" unicode="&#xfe;" horiz-adv-x="606" 
d="M322 515q68 0 120.5 -33.5t83.5 -92t31 -134.5t-31 -135t-84 -93t-119 -34q-35 0 -66.5 10.5t-57.5 28.5t-46 42.5t-32 53.5l18 13v-311q0 -12 -8.5 -21t-21.5 -9t-21.5 9t-8.5 21v880q0 12 8 21t22 9q13 0 21.5 -9t8.5 -21v-336l-14 8q10 31 29.5 55.5t45.5 42t57 26.5
t65 9zM317 459q-54 0 -95 -26.5t-64.5 -72t-23.5 -105.5q0 -59 23.5 -106t64.5 -73.5t95 -26.5q53 0 93.5 26.5t64.5 73.5t24 106t-24 105t-64.5 72.5t-93.5 26.5z" />
    <glyph glyph-name="ydieresis" unicode="&#xff;" horiz-adv-x="568" 
d="M460 520q13 0 21.5 -9t8.5 -21v-441q0 -81 -32 -136.5t-86 -84t-123 -28.5q-43 0 -79.5 9.5t-59.5 24.5q-12 7 -18 17t-1 21q5 14 15.5 18.5t21.5 -0.5q17 -9 49 -22t73 -13q55 0 95.5 23t62.5 66.5t22 103.5v72l7 -24q-15 -31 -42.5 -55t-63 -37.5t-75.5 -13.5
q-60 0 -99.5 24.5t-58.5 67.5t-19 101v307q0 12 8 21t22 9q13 0 21.5 -9t8.5 -21v-298q0 -70 30.5 -108t99.5 -38q43 0 79 20.5t59 54t23 71.5v298q0 12 8.5 21t21.5 9zM371 599q-20 0 -30.5 10.5t-10.5 29.5v10q0 19 11 29.5t31 10.5q19 0 29.5 -10.5t10.5 -29.5v-10
q0 -20 -11 -30t-30 -10zM199 599q-20 0 -30.5 10.5t-10.5 29.5v10q0 19 11 29.5t30 10.5q20 0 30.5 -10.5t10.5 -29.5v-10q0 -20 -11 -30t-30 -10z" />
    <glyph glyph-name="Amacron" unicode="&#x100;" horiz-adv-x="647" 
d="M328 623l-243 -604q-4 -10 -11 -15t-16 -5q-14 0 -21 7.5t-8 18.5q-1 5 1 12l264 646q5 11 12.5 15.5t17.5 4.5t17.5 -5.5t11.5 -14.5l263 -643q2 -6 2 -12q0 -14 -9 -21.5t-21 -7.5q-10 0 -17.5 5.5t-11.5 14.5l-249 608zM143 202l25 59h310l12 -59h-347zM200 788
q-29 0 -29 25q0 26 29 26h255q29 0 29 -26q0 -25 -29 -25h-255z" />
    <glyph glyph-name="amacron" unicode="&#x101;" horiz-adv-x="606" 
d="M498 511q13 0 21.5 -9t8.5 -22v-450q0 -12 -9 -21t-21 -9q-13 0 -21.5 9t-8.5 21v119l17 8q0 -28 -15.5 -57t-42.5 -54t-63.5 -40.5t-78.5 -15.5q-68 0 -121.5 35t-84 96t-30.5 137q0 78 31 137.5t84 93.5t120 34q43 0 80.5 -15t65.5 -41t43.5 -59.5t15.5 -69.5l-21 15
v127q0 13 8.5 22t21.5 9zM290 46q53 0 94 27.5t64.5 76t23.5 108.5q0 59 -23.5 106t-64.5 75t-94 28q-52 0 -93.5 -27t-65 -74t-23.5 -108q0 -60 23.5 -108.5t64.5 -76t94 -27.5zM174 604q-28 0 -28 26q0 27 28 27h240q28 0 28 -27q0 -26 -28 -26h-240z" />
    <glyph glyph-name="Abreve" unicode="&#x102;" horiz-adv-x="647" 
d="M328 623l-243 -604q-4 -10 -11 -15t-16 -5q-14 0 -21 7.5t-8 18.5q-1 5 1 12l264 646q5 11 12.5 15.5t17.5 4.5t17.5 -5.5t11.5 -14.5l263 -643q2 -6 2 -12q0 -14 -9 -21.5t-21 -7.5q-10 0 -17.5 5.5t-11.5 14.5l-249 608zM143 202l25 59h310l12 -59h-347zM324 774
q-51 0 -87 26.5t-50 74.5q-4 14 1 22t18 8q12 0 17.5 -5.5t12.5 -16.5q13 -28 34.5 -43t53.5 -15q62 0 88 58q6 11 12.5 16t17.5 5q13 0 18 -7t1 -22q-13 -48 -49 -74.5t-88 -26.5z" />
    <glyph glyph-name="abreve" unicode="&#x103;" horiz-adv-x="606" 
d="M498 511q13 0 21.5 -9t8.5 -22v-450q0 -12 -9 -21t-21 -9q-13 0 -21.5 9t-8.5 21v119l17 8q0 -28 -15.5 -57t-42.5 -54t-63.5 -40.5t-78.5 -15.5q-68 0 -121.5 35t-84 96t-30.5 137q0 78 31 137.5t84 93.5t120 34q43 0 80.5 -15t65.5 -41t43.5 -59.5t15.5 -69.5l-21 15
v127q0 13 8.5 22t21.5 9zM290 46q53 0 94 27.5t64.5 76t23.5 108.5q0 59 -23.5 106t-64.5 75t-94 28q-52 0 -93.5 -27t-65 -74t-23.5 -108q0 -60 23.5 -108.5t64.5 -76t94 -27.5zM289 572q-34 0 -62.5 16.5t-47 44.5t-21.5 60q-2 11 4.5 19t17.5 8q13 0 20 -6.5t11 -17.5
q6 -35 27.5 -54.5t50.5 -19.5q28 0 49.5 19.5t28.5 54.5q5 11 11.5 17.5t18.5 6.5q11 0 18 -7.5t4 -19.5q-3 -32 -21 -60t-46 -44.5t-63 -16.5z" />
    <glyph glyph-name="Aogonek" unicode="&#x104;" horiz-adv-x="648" 
d="M562 -190q-37 0 -66.5 25t-29.5 70q0 28 10 49t26.5 37t36 26t37.5 16l7 -13l-21 -8l-252 615l18 -4l-243 -604q-4 -10 -11 -15t-16 -5q-15 0 -21.5 7t-7.5 18q-1 6 2 14l263 645q5 11 12.5 15.5t17.5 4.5t17.5 -5.5t11.5 -14.5l266 -650q2 -6 2 -11q0 -9 -5.5 -14.5
t-16.5 -7.5q-31 -7 -55 -31t-24 -52t15 -42t33 -14q22 0 30 12q5 7 11 11t13 4q10 0 16.5 -6.5t6.5 -16.5q0 -14 -12 -27t-31 -20.5t-40 -7.5zM148 202l20 59h310l12 -59h-342z" />
    <glyph glyph-name="aogonek" unicode="&#x105;" horiz-adv-x="605" 
d="M290 46q53 0 94 27.5t64.5 76t23.5 108.5q0 59 -23.5 106t-64.5 75t-94 28q-52 0 -93.5 -27t-65 -74t-23.5 -108q0 -60 23.5 -108.5t64.5 -76t94 -27.5zM473 -193q-37 0 -66.5 25.5t-29.5 70.5q0 27 10 48t26 35t35.5 24t38.5 16l-19 -20v143l17 8q0 -28 -15.5 -57
t-42.5 -54t-63.5 -40.5t-78.5 -15.5q-68 0 -121.5 35t-84 96t-30.5 137q0 78 31 137.5t84 93.5t120 34q43 0 80.5 -15t65.5 -41t43.5 -59.5t15.5 -69.5l-21 15v127q0 13 8.5 22t21.5 9t21.5 -9t8.5 -22v-459q0 -7 -5.5 -15.5t-22.5 -14.5q-29 -9 -49.5 -30t-20.5 -47
q0 -27 15 -41.5t34 -14.5q10 0 17.5 2.5t11.5 9.5q6 7 12.5 11t13.5 4q10 0 16 -6.5t6 -15.5q0 -14 -11.5 -27t-30 -21t-41.5 -8z" />
    <glyph glyph-name="Cacute" unicode="&#x106;" horiz-adv-x="653" 
d="M605 648q12 -8 14 -20.5t-6 -24.5q-7 -9 -18 -10t-21 4q-38 25 -81.5 39t-93.5 14q-61 0 -113.5 -21.5t-91.5 -62t-60.5 -95.5t-21.5 -121q0 -68 22 -123.5t61.5 -95.5t91.5 -61t112 -21q49 0 92.5 14t81.5 38q10 6 21.5 4.5t18.5 -11.5q9 -11 6.5 -23.5t-13.5 -19.5
q-25 -16 -59 -30t-72 -22.5t-76 -8.5q-72 0 -135 26t-112 73.5t-76.5 113.5t-27.5 147q0 78 27 143.5t75 113.5t112 75t137 27q57 0 110 -16t96 -45zM393 746q-10 0 -14.5 5.5t-4.5 12.5q0 5 2.5 9.5t7.5 8.5l89 69q6 4 13 7.5t16 3.5q13 0 21.5 -8.5t8.5 -21.5
q0 -10 -5 -18t-14 -13l-98 -49q-5 -2 -10.5 -4t-11.5 -2z" />
    <glyph glyph-name="cacute" unicode="&#x107;" horiz-adv-x="518" 
d="M304 523q48 0 88 -10.5t64.5 -28.5t24.5 -39q0 -10 -7 -19.5t-19 -9.5t-19.5 6t-15 14t-21.5 15q-13 6 -37 11t-55 5q-56 0 -101 -28t-71 -75.5t-26 -106.5q0 -60 25 -108t69 -75.5t103 -27.5q40 0 62 7t38 16q19 11 27.5 21.5t22.5 10.5q13 0 19.5 -7.5t6.5 -19.5
q0 -16 -23.5 -35.5t-64.5 -34t-94 -14.5q-75 0 -131.5 35t-88 95.5t-31.5 136.5q0 73 32 133t89.5 96.5t133.5 36.5zM289 552q-5 0 -10.5 5.5t-5.5 12.5q0 6 5 14l61 95q5 8 13.5 15t20.5 7q15 0 24 -8t8 -23q0 -7 -2.5 -12.5t-7.5 -10.5l-75 -79q-6 -7 -14 -11.5t-17 -4.5z
" />
    <glyph glyph-name="Ccircumflex" unicode="&#x108;" horiz-adv-x="653" 
d="M605 648q12 -8 14 -20.5t-6 -24.5q-7 -9 -18 -10t-21 4q-38 25 -81.5 39t-93.5 14q-61 0 -113.5 -21.5t-91.5 -62t-60.5 -95.5t-21.5 -121q0 -68 22 -123.5t61.5 -95.5t91.5 -61t112 -21q49 0 92.5 14t81.5 38q10 6 21.5 4.5t18.5 -11.5q9 -11 6.5 -23.5t-13.5 -19.5
q-25 -16 -59 -30t-72 -22.5t-76 -8.5q-72 0 -135 26t-112 73.5t-76.5 113.5t-27.5 147q0 78 27 143.5t75 113.5t112 75t137 27q57 0 110 -16t96 -45zM398 843l-88 -69q-8 -5 -14.5 -9t-12.5 -4q-7 0 -12 5t-5 10t2 8.5t6 8.5l77 82q7 8 14.5 12.5t18.5 4.5h11
q11 0 18.5 -4.5t15.5 -12.5l76 -81q5 -5 6.5 -9t1.5 -8q0 -5 -4.5 -10t-11.5 -5q-6 0 -12.5 3.5t-14.5 9.5l-90 65z" />
    <glyph glyph-name="ccircumflex" unicode="&#x109;" horiz-adv-x="518" 
d="M304 523q48 0 88 -10.5t64.5 -28.5t24.5 -39q0 -10 -7 -19.5t-19 -9.5t-19.5 6t-15 14t-21.5 15q-13 6 -37 11t-55 5q-56 0 -101 -28t-71 -75.5t-26 -106.5q0 -60 25 -108t69 -75.5t103 -27.5q40 0 62 7t38 16q19 11 27.5 21.5t22.5 10.5q13 0 19.5 -7.5t6.5 -19.5
q0 -16 -23.5 -35.5t-64.5 -34t-94 -14.5q-75 0 -131.5 35t-88 95.5t-31.5 136.5q0 73 32 133t89.5 96.5t133.5 36.5zM313 662l-87 -73q-7 -6 -12.5 -10t-13.5 -4q-7 0 -12 5t-5 11q0 4 1.5 8t6.5 8l73 80q11 17 33 17h16q11 0 18.5 -3.5t13.5 -13.5l72 -79q4 -5 5.5 -8.5
t1.5 -8.5t-4.5 -10t-11.5 -5q-8 0 -14 4t-13 10l-89 71z" />
    <glyph glyph-name="Cdotaccent" unicode="&#x10a;" horiz-adv-x="653" 
d="M605 648q12 -8 14 -20.5t-6 -24.5q-7 -9 -18 -10t-21 4q-38 25 -81.5 39t-93.5 14q-61 0 -113.5 -21.5t-91.5 -62t-60.5 -95.5t-21.5 -121q0 -68 22 -123.5t61.5 -95.5t91.5 -61t112 -21q49 0 92.5 14t81.5 38q10 6 21.5 4.5t18.5 -11.5q9 -11 6.5 -23.5t-13.5 -19.5
q-25 -16 -59 -30t-72 -22.5t-76 -8.5q-72 0 -135 26t-112 73.5t-76.5 113.5t-27.5 147q0 78 27 143.5t75 113.5t112 75t137 27q57 0 110 -16t96 -45zM376 770q-21 0 -31.5 10.5t-10.5 29.5v10q0 20 11.5 30t31.5 10q19 0 29.5 -10t10.5 -30v-10q0 -20 -10.5 -30t-30.5 -10z
" />
    <glyph glyph-name="cdotaccent" unicode="&#x10b;" horiz-adv-x="518" 
d="M304 523q48 0 88 -10.5t64.5 -28.5t24.5 -39q0 -10 -7 -19.5t-19 -9.5t-19.5 6t-15 14t-21.5 15q-13 6 -37 11t-55 5q-56 0 -101 -28t-71 -75.5t-26 -106.5q0 -60 25 -108t69 -75.5t103 -27.5q40 0 62 7t38 16q19 11 27.5 21.5t22.5 10.5q13 0 19.5 -7.5t6.5 -19.5
q0 -16 -23.5 -35.5t-64.5 -34t-94 -14.5q-75 0 -131.5 35t-88 95.5t-31.5 136.5q0 73 32 133t89.5 96.5t133.5 36.5zM302 587q-21 0 -31.5 9.5t-10.5 27.5v10q0 18 11.5 27.5t31.5 9.5q19 0 29.5 -9.5t10.5 -27.5v-10q0 -18 -10.5 -27.5t-30.5 -9.5z" />
    <glyph glyph-name="Ccaron" unicode="&#x10c;" horiz-adv-x="653" 
d="M605 648q12 -8 14 -20.5t-6 -24.5q-7 -9 -18 -10t-21 4q-38 25 -81.5 39t-93.5 14q-61 0 -113.5 -21.5t-91.5 -62t-60.5 -95.5t-21.5 -121q0 -68 22 -123.5t61.5 -95.5t91.5 -61t112 -21q49 0 92.5 14t81.5 38q10 6 21.5 4.5t18.5 -11.5q9 -11 6.5 -23.5t-13.5 -19.5
q-25 -16 -59 -30t-72 -22.5t-76 -8.5q-72 0 -135 26t-112 73.5t-76.5 113.5t-27.5 147q0 78 27 143.5t75 113.5t112 75t137 27q57 0 110 -16t96 -45zM382 802l88 70q8 7 15 10t12 3q8 0 12.5 -4.5t4.5 -10.5q0 -4 -2 -8t-6 -9l-77 -82q-6 -9 -14 -13t-19 -4h-11q-11 0 -19 4
t-15 13l-76 81q-5 5 -6.5 9t-1.5 8q0 6 4.5 10.5t11.5 4.5q11 0 27 -12l90 -67z" />
    <glyph glyph-name="ccaron" unicode="&#x10d;" horiz-adv-x="518" 
d="M304 523q48 0 88 -10.5t64.5 -28.5t24.5 -39q0 -10 -7 -19.5t-19 -9.5t-19.5 6t-15 14t-21.5 15q-13 6 -37 11t-55 5q-56 0 -101 -28t-71 -75.5t-26 -106.5q0 -60 25 -108t69 -75.5t103 -27.5q40 0 62 7t38 16q19 11 27.5 21.5t22.5 10.5q13 0 19.5 -7.5t6.5 -19.5
q0 -16 -23.5 -35.5t-64.5 -34t-94 -14.5q-75 0 -131.5 35t-88 95.5t-31.5 136.5q0 73 32 133t89.5 96.5t133.5 36.5zM293 569q-22 0 -34 16l-71 78q-8 8 -8 17q0 7 5.5 11.5t13.5 4.5q10 0 26 -13l84 -68l-14 -2l82 70q8 7 14.5 10.5t13.5 3.5q8 0 13 -4.5t5 -11.5
q0 -4 -2 -8.5t-7 -9.5l-72 -78q-11 -16 -33 -16h-16z" />
    <glyph glyph-name="Dcaron" unicode="&#x10e;" horiz-adv-x="719" 
d="M379 700q74 0 129.5 -28t91.5 -77.5t53.5 -112.5t17.5 -132q0 -96 -31.5 -175.5t-96 -127t-164.5 -47.5h-255q-12 0 -21 9t-9 21v640q0 12 9 21t21 9h255zM369 59q85 0 137 39t76.5 105.5t24.5 146.5q0 58 -13.5 110.5t-42 93t-74 64t-108.5 23.5h-219l7 9v-601l-6 10
h218zM303 802l88 70q8 7 15 10t12 3q8 0 12.5 -4.5t4.5 -10.5q0 -4 -2 -8t-6 -9l-77 -82q-6 -9 -14 -13t-19 -4h-11q-11 0 -19 4t-15 13l-76 81q-5 5 -6.5 9t-1.5 8q0 6 4.5 10.5t11.5 4.5q11 0 27 -12l90 -67z" />
    <glyph glyph-name="dcaron" unicode="&#x10f;" horiz-adv-x="626" 
d="M498 740q13 0 21.5 -8.5t8.5 -21.5v-680q0 -12 -9 -21t-21 -9q-13 0 -21.5 9t-8.5 21v119l17 14q0 -28 -15 -58.5t-42.5 -56.5t-64 -42t-78.5 -16q-67 0 -120.5 35t-84.5 95t-31 137q0 76 31 136.5t84 95t120 34.5q41 0 78 -15t65.5 -41t45 -59.5t16.5 -69.5l-21 15v357
q0 12 8.5 21t21.5 9zM290 46q54 0 94.5 27.5t64 75t23.5 108.5q0 60 -23.5 107.5t-64.5 75t-94 27.5q-52 0 -93.5 -27.5t-65 -75t-23.5 -107.5t23.5 -108t65 -75.5t93.5 -27.5zM690 675q0 -27 -16 -52.5t-39 -42t-45 -16.5q-8 0 -15.5 5t-7.5 19t9.5 15.5t23.5 9.5
q17 8 26 20t9 28q0 13 -7.5 20t-17.5 7q-7 0 -14 -2t-13 -6q-5 5 -9 11t-3 15q2 17 18.5 29.5t38.5 12.5q27 0 44.5 -22t17.5 -51z" />
    <glyph glyph-name="Dcroat" unicode="&#x110;" horiz-adv-x="719" 
d="M379 700q74 0 129.5 -28t91.5 -77.5t53.5 -112.5t17.5 -132q0 -96 -31.5 -175.5t-96 -127t-164.5 -47.5h-255q-12 0 -21 9t-9 21v640q0 12 9 21t21 9h255zM369 59q85 0 137 39t76.5 105.5t24.5 146.5q0 58 -13.5 110.5t-42 93t-74 64t-108.5 23.5h-219l7 9v-601l-6 10
h218zM47 323q-14 0 -22 7.5t-8 21.5q0 12 8 19.5t22 7.5h164q14 0 22 -7.5t8 -20.5t-8 -20.5t-22 -7.5h-164z" />
    <glyph glyph-name="dcroat" unicode="&#x111;" horiz-adv-x="606" 
d="M498 740q13 0 21.5 -8.5t8.5 -21.5v-680q0 -12 -9 -21t-21 -9q-13 0 -21.5 9t-8.5 21v119l17 14q0 -28 -15 -58.5t-42.5 -56.5t-64 -42t-78.5 -16q-67 0 -120.5 35t-84.5 95t-31 137q0 76 31 136.5t84 95t120 34.5q41 0 78 -15t65.5 -41t45 -59.5t16.5 -69.5l-21 15v357
q0 12 8.5 21t21.5 9zM290 46q54 0 94.5 27.5t64 75t23.5 108.5q0 60 -23.5 107.5t-64.5 75t-94 27.5q-52 0 -93.5 -27.5t-65 -75t-23.5 -107.5t23.5 -108t65 -75.5t93.5 -27.5zM395 587q-14 0 -22 7.5t-8 21.5q0 12 8 19.5t22 7.5h164q14 0 22 -7.5t8 -20.5t-8 -20.5
t-22 -7.5h-164z" />
    <glyph glyph-name="Emacron" unicode="&#x112;" horiz-adv-x="568" 
d="M124 700h367q12 0 21 -8.5t9 -21.5t-9 -21t-21 -8h-344l10 17v-281l-11 13h300q12 0 21 -9t9 -21q0 -13 -9 -21t-21 -8h-298l9 10v-288l-5 6h339q12 0 21 -9t9 -21q0 -13 -9 -21t-21 -8h-367q-12 0 -21 9t-9 21v640q0 12 9 21t21 9zM194 788q-29 0 -29 25q0 26 29 26h255
q29 0 29 -26q0 -25 -29 -25h-255z" />
    <glyph glyph-name="emacron" unicode="&#x113;" horiz-adv-x="565" 
d="M310 -10q-77 0 -136 33t-92 92t-33 138q0 85 33.5 145t87 92.5t113.5 32.5q44 0 85.5 -15.5t74 -46t52 -74.5t21.5 -102q-1 -12 -10 -20.5t-21 -8.5h-401l-12 54h394l-13 -12v20q-4 47 -30 80t-63 50t-77 17q-30 0 -61.5 -12t-57 -37.5t-41.5 -65t-16 -93.5
q0 -59 24 -107t69.5 -76t108.5 -28q35 0 63 10t49 26.5t35 34.5q11 9 22 9q10 0 17.5 -8t7.5 -18q0 -12 -10 -21q-30 -36 -78 -62.5t-105 -26.5zM165 604q-28 0 -28 26q0 27 28 27h240q28 0 28 -27q0 -26 -28 -26h-240z" />
    <glyph glyph-name="Ebreve" unicode="&#x114;" horiz-adv-x="568" 
d="M124 700h367q12 0 21 -8.5t9 -21.5t-9 -21t-21 -8h-344l10 17v-281l-11 13h300q12 0 21 -9t9 -21q0 -13 -9 -21t-21 -8h-298l9 10v-288l-5 6h339q12 0 21 -9t9 -21q0 -13 -9 -21t-21 -8h-367q-12 0 -21 9t-9 21v640q0 12 9 21t21 9zM318 774q-51 0 -87 26.5t-50 74.5
q-4 14 1 22t18 8q12 0 17.5 -5.5t12.5 -16.5q13 -28 34.5 -43t53.5 -15q62 0 88 58q6 11 12.5 16t17.5 5q13 0 18 -7t1 -22q-13 -48 -49 -74.5t-88 -26.5z" />
    <glyph glyph-name="ebreve" unicode="&#x115;" horiz-adv-x="565" 
d="M310 -10q-77 0 -136 33t-92 92t-33 138q0 85 33.5 145t87 92.5t113.5 32.5q44 0 85.5 -15.5t74 -46t52 -74.5t21.5 -102q-1 -12 -10 -20.5t-21 -8.5h-401l-12 54h394l-13 -12v20q-4 47 -30 80t-63 50t-77 17q-30 0 -61.5 -12t-57 -37.5t-41.5 -65t-16 -93.5
q0 -59 24 -107t69.5 -76t108.5 -28q35 0 63 10t49 26.5t35 34.5q11 9 22 9q10 0 17.5 -8t7.5 -18q0 -12 -10 -21q-30 -36 -78 -62.5t-105 -26.5zM280 572q-34 0 -62.5 16.5t-47 44.5t-21.5 60q-2 11 4.5 19t17.5 8q13 0 20 -6.5t11 -17.5q6 -35 27.5 -54.5t50.5 -19.5
q28 0 49.5 19.5t28.5 54.5q5 11 11.5 17.5t18.5 6.5q11 0 18 -7.5t4 -19.5q-3 -32 -21 -60t-46 -44.5t-63 -16.5z" />
    <glyph glyph-name="Edotaccent" unicode="&#x116;" horiz-adv-x="568" 
d="M124 700h367q12 0 21 -8.5t9 -21.5t-9 -21t-21 -8h-344l10 17v-281l-11 13h300q12 0 21 -9t9 -21q0 -13 -9 -21t-21 -8h-298l9 10v-288l-5 6h339q12 0 21 -9t9 -21q0 -13 -9 -21t-21 -8h-367q-12 0 -21 9t-9 21v640q0 12 9 21t21 9zM318 770q-21 0 -31.5 10.5t-10.5 29.5
v10q0 20 11.5 30t31.5 10q19 0 29.5 -10t10.5 -30v-10q0 -20 -10.5 -30t-30.5 -10z" />
    <glyph glyph-name="edotaccent" unicode="&#x117;" horiz-adv-x="565" 
d="M310 -10q-77 0 -136 33t-92 92t-33 138q0 85 33.5 145t87 92.5t113.5 32.5q44 0 85.5 -15.5t74 -46t52 -74.5t21.5 -102q-1 -12 -10 -20.5t-21 -8.5h-401l-12 54h394l-13 -12v20q-4 47 -30 80t-63 50t-77 17q-30 0 -61.5 -12t-57 -37.5t-41.5 -65t-16 -93.5
q0 -59 24 -107t69.5 -76t108.5 -28q35 0 63 10t49 26.5t35 34.5q11 9 22 9q10 0 17.5 -8t7.5 -18q0 -12 -10 -21q-30 -36 -78 -62.5t-105 -26.5zM287 587q-21 0 -31.5 9.5t-10.5 27.5v10q0 18 11.5 27.5t31.5 9.5q19 0 29.5 -9.5t10.5 -27.5v-10q0 -18 -10.5 -27.5
t-30.5 -9.5z" />
    <glyph glyph-name="Eogonek" unicode="&#x118;" horiz-adv-x="579" 
d="M442 -190q-37 0 -66.5 25t-29.5 70q0 26 10.5 46.5t27 35t36.5 24.5t39 16l4 -27h-339q-12 0 -21 9t-9 21v640q0 12 9 21t21 9h367q12 0 21 -8.5t9 -21.5q0 -12 -9 -20t-21 -8h-344l10 17v-282l-11 13h300q12 0 21 -9t9 -21t-9 -20.5t-21 -8.5h-298l9 10v-288l-5 6h339
q12 0 21 -8.5t9 -21.5t-9 -20t-25 -10q-21 -2 -41 -13.5t-33 -29.5t-13 -39q0 -27 15 -41.5t34 -14.5q23 0 29 11q5 8 12 12t14 4q10 0 15.5 -6.5t5.5 -16.5q0 -14 -11 -27t-29.5 -20.5t-42.5 -7.5z" />
    <glyph glyph-name="eogonek" unicode="&#x119;" horiz-adv-x="565" 
d="M422 -190q-25 0 -47.5 11.5t-37 32.5t-14.5 51q0 24 8 43t21.5 34t31 27t37.5 22l-18 -20q-20 -9 -44 -15t-49 -6q-77 0 -136 33t-92 92t-33 138q0 85 33.5 145t87 92.5t113.5 32.5q44 0 85.5 -15.5t74 -46t52 -74.5t21.5 -102q-1 -12 -10 -20.5t-21 -8.5h-403l-5 54h390
l-14 -15v23q-4 47 -30 80t-63 50t-77 17q-46 0 -86 -23t-65 -69.5t-25 -115.5q0 -59 24 -107t69.5 -76t108.5 -28q35 0 63 10t49 26.5t35 34.5q11 9 22 9t18.5 -8.5t7.5 -18.5q0 -5 -2 -10t-8 -10q-28 -32 -55 -57t-45 -49.5t-18 -57.5q0 -24 15 -39t37 -15q21 0 30 11
q6 8 12.5 12t13.5 4q10 0 16 -6t6 -17t-13 -24t-32 -22t-39 -9z" />
    <glyph glyph-name="Ecaron" unicode="&#x11a;" horiz-adv-x="568" 
d="M124 700h367q12 0 21 -8.5t9 -21.5t-9 -21t-21 -8h-344l10 17v-281l-11 13h300q12 0 21 -9t9 -21q0 -13 -9 -21t-21 -8h-298l9 10v-288l-5 6h339q12 0 21 -9t9 -21q0 -13 -9 -21t-21 -8h-367q-12 0 -21 9t-9 21v640q0 12 9 21t21 9zM309 802l88 70q8 7 15 10t12 3
q8 0 12.5 -4.5t4.5 -10.5q0 -4 -2 -8t-6 -9l-77 -82q-6 -9 -14 -13t-19 -4h-11q-11 0 -19 4t-15 13l-76 81q-5 5 -6.5 9t-1.5 8q0 6 4.5 10.5t11.5 4.5q11 0 27 -12l90 -67z" />
    <glyph glyph-name="ecaron" unicode="&#x11b;" horiz-adv-x="565" 
d="M310 -10q-77 0 -136 33t-92 92t-33 138q0 85 33.5 145t87 92.5t113.5 32.5q44 0 85.5 -15.5t74 -46t52 -74.5t21.5 -102q-1 -12 -10 -20.5t-21 -8.5h-401l-12 54h394l-13 -12v20q-4 47 -30 80t-63 50t-77 17q-30 0 -61.5 -12t-57 -37.5t-41.5 -65t-16 -93.5
q0 -59 24 -107t69.5 -76t108.5 -28q35 0 63 10t49 26.5t35 34.5q11 9 22 9q10 0 17.5 -8t7.5 -18q0 -12 -10 -21q-30 -36 -78 -62.5t-105 -26.5zM278 569q-22 0 -34 16l-71 78q-8 8 -8 17q0 7 5.5 11.5t13.5 4.5q10 0 26 -13l84 -68l-14 -2l82 70q8 7 14.5 10.5t13.5 3.5
q8 0 13 -4.5t5 -11.5q0 -4 -2 -8.5t-7 -9.5l-72 -78q-11 -16 -33 -16h-16z" />
    <glyph glyph-name="Gcircumflex" unicode="&#x11c;" horiz-adv-x="695" 
d="M408 -10q-77 0 -143 27t-114.5 75.5t-75.5 114.5t-27 143t27 143t75.5 114.5t114.5 75.5t143 27q53 0 102.5 -12.5t88.5 -37.5q7 -5 10.5 -11.5t3.5 -13.5q0 -14 -9 -22.5t-19 -8.5q-5 0 -9.5 1.5t-8.5 3.5q-34 19 -74 30t-85 11q-86 0 -153 -39t-105 -107t-38 -154
t38 -154t105 -107t153 -39q45 0 90.5 13t78.5 35l-5 -21v230l15 -14h-173q-13 0 -22 9t-9 21q0 14 9 22t22 8h191q13 0 21.5 -8.5t8.5 -21.5v-241q0 -8 -4 -15t-11 -12q-44 -30 -98.5 -47.5t-113.5 -17.5zM387 843l-88 -69q-8 -5 -14.5 -9t-12.5 -4q-7 0 -12 5t-5 10t2 8.5
t6 8.5l77 82q7 8 14.5 12.5t18.5 4.5h11q11 0 18.5 -4.5t15.5 -12.5l76 -81q5 -5 6.5 -9t1.5 -8q0 -5 -4.5 -10t-11.5 -5q-6 0 -12.5 3.5t-14.5 9.5l-90 65z" />
    <glyph glyph-name="gcircumflex" unicode="&#x11d;" horiz-adv-x="624" 
d="M292 523q45 0 83 -15.5t66.5 -40t44.5 -52t16 -52.5l-17 24v93q0 13 8.5 22t21.5 9q14 0 22 -9t8 -22v-433q0 -80 -33 -135t-89.5 -83.5t-128.5 -28.5q-35 0 -73.5 9t-66 23t-30.5 29q-8 9 -7.5 17.5t8.5 14.5q10 7 21 1.5t33 -14.5q10 -3 27 -9t40.5 -10.5t49.5 -4.5
q90 0 139.5 51.5t49.5 135.5v96l11 -3q-9 -36 -29.5 -63t-48.5 -45.5t-60.5 -28t-64.5 -9.5q-69 0 -124 35t-87.5 95t-32.5 137q0 76 32.5 136.5t87 95t123.5 34.5zM299 467q-55 0 -98.5 -27.5t-68 -75t-24.5 -107.5t24.5 -108t68 -75.5t98.5 -27.5t98 27t68 74.5t25 109.5
t-25 109.5t-68 74t-98 26.5zM326 662l-87 -73q-7 -6 -12.5 -10t-13.5 -4q-7 0 -12 5t-5 11q0 4 1.5 8t6.5 8l73 80q11 17 33 17h16q11 0 18.5 -3.5t13.5 -13.5l72 -79q4 -5 5.5 -8.5t1.5 -8.5t-4.5 -10t-11.5 -5q-8 0 -14 4t-13 10l-89 71z" />
    <glyph glyph-name="Gbreve" unicode="&#x11e;" horiz-adv-x="695" 
d="M408 -10q-77 0 -143 27t-114.5 75.5t-75.5 114.5t-27 143t27 143t75.5 114.5t114.5 75.5t143 27q53 0 102.5 -12.5t88.5 -37.5q7 -5 10.5 -11.5t3.5 -13.5q0 -14 -9 -22.5t-19 -8.5q-5 0 -9.5 1.5t-8.5 3.5q-34 19 -74 30t-85 11q-86 0 -153 -39t-105 -107t-38 -154
t38 -154t105 -107t153 -39q45 0 90.5 13t78.5 35l-5 -21v230l15 -14h-173q-13 0 -22 9t-9 21q0 14 9 22t22 8h191q13 0 21.5 -8.5t8.5 -21.5v-241q0 -8 -4 -15t-11 -12q-44 -30 -98.5 -47.5t-113.5 -17.5zM380 774q-51 0 -87 26.5t-50 74.5q-4 14 1 22t18 8q12 0 17.5 -5.5
t12.5 -16.5q13 -28 34.5 -43t53.5 -15q62 0 88 58q6 11 12.5 16t17.5 5q13 0 18 -7t1 -22q-13 -48 -49 -74.5t-88 -26.5z" />
    <glyph glyph-name="gbreve" unicode="&#x11f;" horiz-adv-x="624" 
d="M292 523q45 0 83 -15.5t66.5 -40t44.5 -52t16 -52.5l-17 24v93q0 13 8.5 22t21.5 9q14 0 22 -9t8 -22v-433q0 -80 -33 -135t-89.5 -83.5t-128.5 -28.5q-35 0 -73.5 9t-66 23t-30.5 29q-8 9 -7.5 17.5t8.5 14.5q10 7 21 1.5t33 -14.5q10 -3 27 -9t40.5 -10.5t49.5 -4.5
q90 0 139.5 51.5t49.5 135.5v96l11 -3q-9 -36 -29.5 -63t-48.5 -45.5t-60.5 -28t-64.5 -9.5q-69 0 -124 35t-87.5 95t-32.5 137q0 76 32.5 136.5t87 95t123.5 34.5zM299 467q-55 0 -98.5 -27.5t-68 -75t-24.5 -107.5t24.5 -108t68 -75.5t98.5 -27.5t98 27t68 74.5t25 109.5
t-25 109.5t-68 74t-98 26.5zM308 572q-34 0 -62.5 16.5t-47 44.5t-21.5 60q-2 11 4.5 19t17.5 8q13 0 20 -6.5t11 -17.5q6 -35 27.5 -54.5t50.5 -19.5q28 0 49.5 19.5t28.5 54.5q5 11 11.5 17.5t18.5 6.5q11 0 18 -7.5t4 -19.5q-3 -32 -21 -60t-46 -44.5t-63 -16.5z" />
    <glyph glyph-name="Gdotaccent" unicode="&#x120;" horiz-adv-x="695" 
d="M408 -10q-77 0 -143 27t-114.5 75.5t-75.5 114.5t-27 143t27 143t75.5 114.5t114.5 75.5t143 27q53 0 102.5 -12.5t88.5 -37.5q7 -5 10.5 -11.5t3.5 -13.5q0 -14 -9 -22.5t-19 -8.5q-5 0 -9.5 1.5t-8.5 3.5q-34 19 -74 30t-85 11q-86 0 -153 -39t-105 -107t-38 -154
t38 -154t105 -107t153 -39q45 0 90.5 13t78.5 35l-5 -21v230l15 -14h-173q-13 0 -22 9t-9 21q0 14 9 22t22 8h191q13 0 21.5 -8.5t8.5 -21.5v-241q0 -8 -4 -15t-11 -12q-44 -30 -98.5 -47.5t-113.5 -17.5zM380 770q-21 0 -31.5 10.5t-10.5 29.5v10q0 20 11.5 30t31.5 10
q19 0 29.5 -10t10.5 -30v-10q0 -20 -10.5 -30t-30.5 -10z" />
    <glyph glyph-name="gdotaccent" unicode="&#x121;" horiz-adv-x="624" 
d="M292 523q45 0 83 -15.5t66.5 -40t44.5 -52t16 -52.5l-17 24v93q0 13 8.5 22t21.5 9q14 0 22 -9t8 -22v-433q0 -80 -33 -135t-89.5 -83.5t-128.5 -28.5q-35 0 -73.5 9t-66 23t-30.5 29q-8 9 -7.5 17.5t8.5 14.5q10 7 21 1.5t33 -14.5q10 -3 27 -9t40.5 -10.5t49.5 -4.5
q90 0 139.5 51.5t49.5 135.5v96l11 -3q-9 -36 -29.5 -63t-48.5 -45.5t-60.5 -28t-64.5 -9.5q-69 0 -124 35t-87.5 95t-32.5 137q0 76 32.5 136.5t87 95t123.5 34.5zM299 467q-55 0 -98.5 -27.5t-68 -75t-24.5 -107.5t24.5 -108t68 -75.5t98.5 -27.5t98 27t68 74.5t25 109.5
t-25 109.5t-68 74t-98 26.5zM315 587q-21 0 -31.5 9.5t-10.5 27.5v10q0 18 11.5 27.5t31.5 9.5q19 0 29.5 -9.5t10.5 -27.5v-10q0 -18 -10.5 -27.5t-30.5 -9.5z" />
    <glyph glyph-name="uni0122" unicode="&#x122;" horiz-adv-x="695" 
d="M408 -10q-77 0 -143 27t-114.5 75.5t-75.5 114.5t-27 143t27 143t75.5 114.5t114.5 75.5t143 27q53 0 102.5 -12.5t88.5 -37.5q7 -5 10.5 -11.5t3.5 -13.5q0 -14 -9 -22.5t-19 -8.5q-5 0 -9.5 1.5t-8.5 3.5q-34 19 -74 30t-85 11q-86 0 -153 -39t-105 -107t-38 -154
t38 -154t105 -107t153 -39q45 0 90.5 13t78.5 35l-5 -21v230l15 -14h-173q-13 0 -22 9t-9 21q0 14 9 22t22 8h191q13 0 21.5 -8.5t8.5 -21.5v-241q0 -8 -4 -15t-11 -12q-44 -30 -98.5 -47.5t-113.5 -17.5zM451 -107q0 -20 -11 -37.5t-28.5 -28t-37.5 -10.5q-19 0 -27 6
t-8 14q0 9 4.5 14t10.5 5q5 0 11.5 -2.5t17.5 -0.5q9 1 14 9t5 23q0 12 -10 12q-6 0 -9.5 -4t-12.5 -4q-12 -1 -19 8t-7 19q0 17 14 27t38 10q23 0 39 -15t16 -45z" />
    <glyph glyph-name="uni0123" unicode="&#x123;" horiz-adv-x="624" 
d="M292 523q45 0 83 -15.5t66.5 -40t44.5 -52t16 -52.5l-17 24v93q0 13 8.5 22t21.5 9q14 0 22 -9t8 -22v-433q0 -80 -33 -135t-89.5 -83.5t-128.5 -28.5q-35 0 -73.5 9t-66 23t-30.5 29q-8 9 -7.5 17.5t8.5 14.5q10 7 21 1.5t33 -14.5q10 -3 27 -9t40.5 -10.5t49.5 -4.5
q90 0 139.5 51.5t49.5 135.5v96l11 -3q-9 -36 -29.5 -63t-48.5 -45.5t-60.5 -28t-64.5 -9.5q-69 0 -124 35t-87.5 95t-32.5 137q0 76 32.5 136.5t87 95t123.5 34.5zM299 467q-55 0 -98.5 -27.5t-68 -75t-24.5 -107.5t24.5 -108t68 -75.5t98.5 -27.5t98 27t68 74.5t25 109.5
t-25 109.5t-68 74t-98 26.5zM250 650q0 28 16 53t39 41.5t45 16.5q8 0 15.5 -5t7.5 -19q0 -13 -9 -15t-24 -10q-17 -8 -26 -20t-9 -28q0 -12 7.5 -19.5t17.5 -7.5q7 0 14.5 2t12.5 6q6 -4 9.5 -10.5t2.5 -15.5q-1 -17 -18 -29.5t-39 -12.5q-27 0 -44.5 22t-17.5 51z" />
    <glyph glyph-name="Hcircumflex" unicode="&#x124;" horiz-adv-x="720" 
d="M126 700q12 0 21.5 -9t9.5 -22v-638q-1 -13 -10.5 -22t-21.5 -9q-14 0 -22.5 9t-8.5 22v638q0 13 9 22t23 9zM595 700q14 0 22.5 -9t8.5 -22v-638q-1 -13 -9.5 -22t-22.5 -9q-13 0 -22 9t-9 22v638q0 13 9.5 22t22.5 9zM121 387h475l-1 -58h-478zM368 843l-88 -69
q-8 -5 -14.5 -9t-12.5 -4q-7 0 -12 5t-5 10t2 8.5t6 8.5l77 82q7 8 14.5 12.5t18.5 4.5h11q11 0 18.5 -4.5t15.5 -12.5l76 -81q5 -5 6.5 -9t1.5 -8q0 -5 -4.5 -10t-11.5 -5q-6 0 -12.5 3.5t-14.5 9.5l-90 65z" />
    <glyph glyph-name="hcircumflex" unicode="&#x125;" horiz-adv-x="568" 
d="M312 515q63 0 102 -27t57.5 -73t18.5 -102v-283q0 -12 -9 -21t-21 -9q-14 0 -22 9t-8 21v283q0 41 -12.5 74t-40.5 52.5t-75 19.5q-42 0 -79.5 -19.5t-60.5 -52.5t-23 -74v-283q0 -12 -9 -21t-21 -9q-14 0 -22 9t-8 21v680q0 12 8.5 21t21.5 9t21.5 -9t8.5 -21v-324
l-23 -35q2 31 19.5 60.5t45.5 53t62 37t69 13.5zM116 853l-88 -69q-8 -5 -14.5 -9t-12.5 -4q-7 0 -12 5t-5 10t2 8.5t6 8.5l77 82q7 8 14.5 12.5t18.5 4.5h11q11 0 18.5 -4.5t15.5 -12.5l76 -81q5 -5 6.5 -9t1.5 -8q0 -5 -4.5 -10t-11.5 -5q-6 0 -12.5 3.5t-14.5 9.5l-90 65
z" />
    <glyph glyph-name="Hbar" unicode="&#x126;" horiz-adv-x="832" 
d="M113 489q-12 0 -20 8.5t-8 19.5q0 12 8 19.5t20 7.5h606q12 0 20 -8t8 -19q0 -12 -8 -20t-20 -8h-606zM181 700q13 0 22 -9t9 -22v-638q0 -13 -9.5 -22t-21.5 -9q-15 0 -23 9t-8 22v638q0 13 9 22t22 9zM651 700q13 0 22 -9t9 -22v-638q-1 -13 -10 -22t-22 -9t-22 9
t-9 22v638q0 13 9.5 22t22.5 9zM177 387h475l-1 -58h-479z" />
    <glyph glyph-name="hbar" unicode="&#x127;" horiz-adv-x="568" 
d="M312 515q63 0 102 -27t57.5 -73t18.5 -102v-283q0 -12 -9 -21t-21 -9q-14 0 -22 9t-8 21v283q0 41 -12.5 74t-40.5 52.5t-75 19.5q-42 0 -79.5 -19.5t-60.5 -52.5t-23 -74v-283q0 -12 -9 -21t-21 -9q-14 0 -22 9t-8 21v680q0 12 8.5 21t21.5 9t21.5 -9t8.5 -21v-324
l-23 -35q2 31 19.5 60.5t45.5 53t62 37t69 13.5zM43 563q-14 0 -22 7.5t-8 21.5q0 12 8 19.5t22 7.5h164q14 0 22 -7.5t8 -20.5t-8 -20.5t-22 -7.5h-164z" />
    <glyph glyph-name="Itilde" unicode="&#x128;" horiz-adv-x="250" 
d="M157 31q-1 -13 -10.5 -22t-21.5 -9q-14 0 -22.5 9t-8.5 22v638q0 13 9 22t23 9q12 0 21.5 -9t9.5 -22v-638zM-3 771q-13 0 -19.5 11.5t-3.5 32.5q7 32 31.5 49.5t55.5 17.5q25 0 50 -14.5t48.5 -29t40.5 -14.5q14 0 22.5 11t10.5 28q-1 12 5.5 19t16.5 7q15 0 21 -12
t3 -31q-3 -22 -14.5 -38t-28 -24.5t-38.5 -8.5q-24 0 -49.5 14.5t-49.5 28.5t-41 14q-14 0 -24 -9.5t-15 -29.5q1 -10 -6.5 -16t-15.5 -6z" />
    <glyph glyph-name="itilde" unicode="&#x129;" horiz-adv-x="214" 
d="M137 30q0 -12 -9 -21t-21 -9q-13 0 -21.5 9t-8.5 21v460q0 12 8.5 21t21.5 9t21.5 -9t8.5 -21v-460zM-22 582q-16 0 -20.5 11t-1.5 32q6 33 31 50.5t59 17.5q18 0 36.5 -9t36.5 -20t33.5 -20t28.5 -9q14 0 22.5 10t9.5 28q-1 11 6 18t17 7q17 0 22 -11.5t3 -30.5
q-4 -22 -15.5 -38t-29.5 -24.5t-42 -8.5q-15 0 -33.5 8.5t-36.5 19.5t-34.5 19.5t-30.5 8.5q-13 0 -23 -8.5t-15 -28.5q1 -10 -6.5 -16t-16.5 -6z" />
    <glyph glyph-name="Imacron" unicode="&#x12a;" horiz-adv-x="250" 
d="M157 31q-1 -13 -10.5 -22t-21.5 -9q-14 0 -22.5 9t-8.5 22v638q0 13 9 22t23 9q12 0 21.5 -9t9.5 -22v-638zM2 788q-29 0 -29 25q0 26 29 26h255q29 0 29 -26q0 -25 -29 -25h-255z" />
    <glyph glyph-name="imacron" unicode="&#x12b;" horiz-adv-x="214" 
d="M137 30q0 -12 -9 -21t-21 -9q-13 0 -21.5 9t-8.5 21v460q0 12 8.5 21t21.5 9t21.5 -9t8.5 -21v-460zM-15 604q-28 0 -28 26q0 27 28 27h240q28 0 28 -27q0 -26 -28 -26h-240z" />
    <glyph glyph-name="Ibreve" unicode="&#x12c;" horiz-adv-x="250" 
d="M157 31q-1 -13 -10.5 -22t-21.5 -9q-14 0 -22.5 9t-8.5 22v638q0 13 9 22t23 9q12 0 21.5 -9t9.5 -22v-638zM126 774q-51 0 -87 26.5t-50 74.5q-4 14 1 22t18 8q12 0 17.5 -5.5t12.5 -16.5q13 -28 34.5 -43t53.5 -15q62 0 88 58q6 11 12.5 16t17.5 5q13 0 18 -7t1 -22
q-13 -48 -49 -74.5t-88 -26.5z" />
    <glyph glyph-name="ibreve" unicode="&#x12d;" horiz-adv-x="214" 
d="M137 30q0 -12 -9 -21t-21 -9q-13 0 -21.5 9t-8.5 21v460q0 12 8.5 21t21.5 9t21.5 -9t8.5 -21v-460zM100 572q-34 0 -62.5 16.5t-47 44.5t-21.5 60q-2 11 4.5 19t17.5 8q13 0 20 -6.5t11 -17.5q6 -35 27.5 -54.5t50.5 -19.5q28 0 49.5 19.5t28.5 54.5q5 11 11.5 17.5
t18.5 6.5q11 0 18 -7.5t4 -19.5q-3 -32 -21 -60t-46 -44.5t-63 -16.5z" />
    <glyph glyph-name="Iogonek" unicode="&#x12e;" horiz-adv-x="235" 
d="M101 -190q-37 0 -66.5 25t-29.5 70q0 28 9.5 49t25.5 37t35 26t39 16l-1 -19l-21 10v645q0 13 9.5 22t23.5 9q13 0 22 -9t9 -22v-638q0 -10 -4.5 -16t-16.5 -11q-28 -10 -52.5 -32.5t-24.5 -54.5q0 -27 15 -41.5t34 -14.5q17 0 25 6.5t14.5 13.5t15.5 7q10 0 16 -6.5
t6 -16.5q0 -14 -11.5 -27t-30 -20.5t-41.5 -7.5z" />
    <glyph glyph-name="iogonek" unicode="&#x12f;" horiz-adv-x="214" 
d="M81 -190q-37 0 -66.5 25t-29.5 70q0 28 10 48t28 34.5t39.5 24t43.5 16.5l-29 -20v482q0 12 8.5 21t21.5 9t21.5 -9t8.5 -21v-453q0 -16 -10 -26.5t-24.5 -19t-29.5 -18t-25 -22.5t-10 -34q0 -27 15 -41.5t34 -14.5q9 0 15.5 1.5t10.5 6.5q7 9 14.5 14t14.5 5
q10 0 16 -6.5t6 -16.5q0 -14 -11.5 -27t-30 -20.5t-41.5 -7.5zM107 587q-21 0 -31.5 9.5t-10.5 27.5v11q0 17 11.5 26.5t31.5 9.5q19 0 29.5 -9.5t10.5 -26.5v-11q0 -18 -11 -27.5t-30 -9.5z" />
    <glyph glyph-name="Idotaccent" unicode="&#x130;" horiz-adv-x="250" 
d="M157 31q-1 -13 -10.5 -22t-21.5 -9q-14 0 -22.5 9t-8.5 22v638q0 13 9 22t23 9q12 0 21.5 -9t9.5 -22v-638zM126 770q-21 0 -31.5 10.5t-10.5 29.5v10q0 20 11.5 30t31.5 10q19 0 29.5 -10t10.5 -30v-10q0 -20 -10.5 -30t-30.5 -10z" />
    <glyph glyph-name="dotlessi" unicode="&#x131;" horiz-adv-x="214" 
d="M137 30q0 -12 -9 -21t-21 -9q-13 0 -21.5 9t-8.5 21v460q0 12 8.5 21t21.5 9t21.5 -9t8.5 -21v-460z" />
    <glyph glyph-name="IJ" unicode="&#x132;" horiz-adv-x="599" 
d="M170 267q-1 -13 -10 -22t-21 -9q-15 0 -23.5 9t-8.5 22v402q0 13 9 22t23 9q13 0 22 -9t9 -22v-402zM287 -10q-63 0 -112.5 35t-76.5 92q-4 9 -4 16q0 13 9.5 20.5t19.5 7.5t16.5 -5t12.5 -12q19 -42 54.5 -68t80.5 -26q47 0 81.5 19.5t54.5 54.5t20 80v466q0 12 9 21
t23 9t22 -9t8 -21v-466q0 -62 -27.5 -110.5t-77 -76t-113.5 -27.5z" />
    <glyph glyph-name="ij" unicode="&#x133;" horiz-adv-x="476" 
d="M137 30q0 -12 -9 -21t-21 -9q-13 0 -21.5 9t-8.5 21v460q0 12 8.5 21t21.5 9t21.5 -9t8.5 -21v-460zM107 587q-21 0 -31.5 9.5t-10.5 27.5v10q0 18 11.5 27.5t31.5 9.5q19 0 29.5 -9.5t10.5 -27.5v-10q0 -18 -10.5 -27.5t-30.5 -9.5zM358 -46q0 -48 -22.5 -81.5
t-55.5 -51.5t-66 -18q-13 0 -20.5 8t-7.5 19v4q0 12 8 19t18 9q23 5 42.5 17t31.5 33t12 51v516q0 12 8.5 21t21.5 9t21.5 -9t8.5 -21v-525zM328 588q-21 0 -31.5 9.5t-10.5 27.5v10q0 18 11.5 27.5t31.5 9.5q19 0 29.5 -9.5t10.5 -27.5v-10q0 -18 -10.5 -27.5t-30.5 -9.5z
" />
    <glyph glyph-name="Jcircumflex" unicode="&#x134;" horiz-adv-x="572" 
d="M260 -10q-63 0 -113 35t-76 92q-5 9 -5 16q0 13 10 20.5t20 7.5t16.5 -5t11.5 -12q19 -42 55 -68t81 -26q46 0 81 19.5t54.5 54.5t19.5 80v466q0 12 9.5 21t22.5 9q14 0 22.5 -9t8.5 -21v-466q0 -62 -28 -110.5t-77 -76t-113 -27.5zM455 843l-88 -69q-8 -5 -14.5 -9
t-12.5 -4q-7 0 -12 5t-5 10t2 8.5t6 8.5l77 82q7 8 14.5 12.5t18.5 4.5h11q11 0 18.5 -4.5t15.5 -12.5l76 -81q5 -5 6.5 -9t1.5 -8q0 -5 -4.5 -10t-11.5 -5q-6 0 -12.5 3.5t-14.5 9.5l-90 65z" />
    <glyph glyph-name="jcircumflex" unicode="&#x135;" horiz-adv-x="241" 
d="M152 -46q0 -48 -22.5 -81.5t-55.5 -51.5t-66 -18q-13 0 -20.5 8t-7.5 19v4q0 12 8 19t18 9q23 5 42.5 17t31.5 33t12 51v516q0 12 8.5 21t21.5 9t21.5 -9t8.5 -21v-525zM133 663l-87 -73q-7 -6 -12.5 -10t-13.5 -4q-7 0 -12 5t-5 11q0 4 1.5 8t6.5 8l73 80q11 17 33 17
h16q11 0 18.5 -3.5t13.5 -13.5l72 -79q4 -5 5.5 -8.5t1.5 -8.5t-4.5 -10t-11.5 -5q-8 0 -14 4t-13 10l-89 71z" />
    <glyph glyph-name="uni0136" unicode="&#x136;" horiz-adv-x="675" 
d="M594 -4q-13 0 -22 11l-284 357l47 47l286 -362q7 -10 7 -21q0 -16 -11.5 -24t-22.5 -8zM583 698q12 0 20.5 -9t8.5 -20q0 -12 -9 -21l-454 -425l-8 68l420 397q10 10 22 10zM125 0q-14 0 -22.5 9t-8.5 22v638q0 13 9 22t23 9q13 0 22 -9t9 -22v-638q-1 -13 -10 -22
t-22 -9zM367 -107q0 -20 -11 -37.5t-28.5 -28t-37.5 -10.5q-19 0 -27 6t-8 14q0 9 4.5 14t10.5 5q5 0 11.5 -2.5t17.5 -0.5q9 1 14 9t5 23q0 12 -10 12q-6 0 -9.5 -4t-12.5 -4q-12 -1 -19 8t-7 19q0 17 14 27t38 10q23 0 39 -15t16 -45z" />
    <glyph glyph-name="uni0137" unicode="&#x137;" horiz-adv-x="535" 
d="M115 0q-13 0 -21.5 9t-8.5 21v680q0 12 8.5 21t21.5 9t21.5 -9t8.5 -21v-680q0 -12 -8.5 -21t-21.5 -9zM455 513q11 0 20 -9.5t9 -20.5q0 -13 -11 -23l-336 -286l-3 71l300 258q9 10 21 10zM463 0q-13 0 -22 11l-228 242l45 41l226 -241q9 -10 9 -23q0 -14 -11 -22
t-19 -8zM323 -105q0 -27 -16 -52.5t-39 -42t-45 -16.5q-8 0 -15.5 5t-7.5 19t9.5 15.5t23.5 9.5q17 8 26 20t9 28q0 13 -7.5 20t-17.5 7q-7 0 -14 -2t-13 -6q-5 5 -9 11t-3 15q2 17 18.5 29.5t38.5 12.5q27 0 44.5 -22t17.5 -51z" />
    <glyph glyph-name="kgreenlandic" unicode="&#x138;" horiz-adv-x="535" 
d="M115 0q-13 0 -21.5 9t-8.5 21v448q0 12 8.5 21t21.5 9t21.5 -9t8.5 -21v-448q0 -12 -8.5 -21t-21.5 -9zM455 513q11 0 20 -9.5t9 -20.5q0 -13 -11 -23l-336 -286l-3 71l300 258q9 10 21 10zM463 0q-13 0 -22 11l-228 242l45 41l226 -241q9 -10 9 -23q0 -15 -12 -22.5
t-18 -7.5z" />
    <glyph glyph-name="Lacute" unicode="&#x139;" horiz-adv-x="532" 
d="M481 59q12 0 21 -8.5t9 -20.5q0 -13 -9 -21.5t-21 -8.5h-357q-13 0 -21.5 9t-8.5 21v640q0 12 9 21t23 9q12 0 21.5 -9t9.5 -21v-628l-19 17h343zM119 746q-10 0 -14.5 5.5t-4.5 12.5q0 5 2.5 9.5t7.5 8.5l89 69q6 4 13 7.5t16 3.5q13 0 21.5 -8.5t8.5 -21.5
q0 -10 -5 -18t-14 -13l-98 -49q-5 -2 -10.5 -4t-11.5 -2z" />
    <glyph glyph-name="lacute" unicode="&#x13a;" horiz-adv-x="230" 
d="M145 30q0 -12 -9 -21t-21 -9q-13 0 -21.5 9t-8.5 21v680q0 12 9 21t21 9q13 0 21.5 -9t8.5 -21v-680zM118 786q-10 0 -14.5 5.5t-4.5 12.5q0 5 2.5 9.5t7.5 8.5l89 69q6 4 13 7.5t16 3.5q13 0 21.5 -8.5t8.5 -21.5q0 -10 -5 -18t-14 -13l-98 -49q-5 -2 -10.5 -4t-11.5 -2
z" />
    <glyph glyph-name="uni013B" unicode="&#x13b;" horiz-adv-x="532" 
d="M481 59q12 0 21 -8.5t9 -20.5q0 -13 -9 -21.5t-21 -8.5h-357q-13 0 -21.5 9t-8.5 21v640q0 12 9 21t23 9q12 0 21.5 -9t9.5 -21v-628l-19 17h343zM344 -107q0 -20 -11 -37.5t-28.5 -28t-37.5 -10.5q-19 0 -27 6t-8 14q0 9 4.5 14t10.5 5q5 0 11.5 -2.5t17.5 -0.5
q9 1 14 9t5 23q0 12 -10 12q-6 0 -9.5 -4t-12.5 -4q-12 -1 -19 8t-7 19q0 17 14 27t38 10q23 0 39 -15t16 -45z" />
    <glyph glyph-name="uni013C" unicode="&#x13c;" horiz-adv-x="230" 
d="M145 30q0 -12 -9 -21t-21 -9q-13 0 -21.5 9t-8.5 21v680q0 12 9 21t21 9q13 0 21.5 -9t8.5 -21v-680zM170 -105q0 -27 -16 -52.5t-39 -42t-45 -16.5q-8 0 -15.5 5t-7.5 19t9.5 15.5t23.5 9.5q17 8 26 20t9 28q0 13 -7.5 20t-17.5 7q-7 0 -14 -2t-13 -6q-5 5 -9 11t-3 15
q2 17 18.5 29.5t38.5 12.5q27 0 44.5 -22t17.5 -51z" />
    <glyph glyph-name="Lcaron" unicode="&#x13d;" horiz-adv-x="532" 
d="M481 59q12 0 21 -8.5t9 -20.5q0 -13 -9 -21.5t-21 -8.5h-357q-13 0 -21.5 9t-8.5 21v640q0 12 9 21t23 9q12 0 21.5 -9t9.5 -21v-628l-19 17h343zM408 675q0 -27 -16 -52.5t-39 -42t-45 -16.5q-8 0 -15.5 5t-7.5 19t9.5 15.5t23.5 9.5q17 8 26 20t9 28q0 13 -7.5 20
t-17.5 7q-7 0 -14 -2t-13 -6q-5 5 -9 11t-3 15q2 17 18.5 29.5t38.5 12.5q27 0 44.5 -22t17.5 -51z" />
    <glyph glyph-name="lcaron" unicode="&#x13e;" horiz-adv-x="242" 
d="M145 30q0 -12 -9 -21t-21 -9q-13 0 -21.5 9t-8.5 21v680q0 12 9 21t21 9q13 0 21.5 -9t8.5 -21v-680zM305 675q0 -27 -16 -52.5t-38.5 -42t-45.5 -16.5q-8 0 -15 5t-7 19t9 15.5t24 9.5q16 8 25 20t9 28q0 13 -7.5 20t-17.5 7q-7 0 -14 -2t-12 -6q-6 5 -9.5 11t-3.5 15
q2 17 19 29.5t38 12.5q27 0 44.5 -22t17.5 -51z" />
    <glyph glyph-name="Ldot" unicode="&#x13f;" horiz-adv-x="538" 
d="M481 59q12 0 21 -8.5t9 -20.5q0 -13 -9 -21.5t-21 -8.5h-357q-13 0 -21.5 9t-8.5 21v640q0 12 9 21t23 9q12 0 21.5 -9t9.5 -21v-628l-19 17h343zM397 331q-17 0 -27.5 10.5t-10.5 27.5v22q0 17 10.5 27.5t27.5 10.5h7q17 0 27.5 -10.5t10.5 -27.5v-22q0 -17 -10.5 -27.5
t-27.5 -10.5h-7z" />
    <glyph glyph-name="ldot" unicode="&#x140;" horiz-adv-x="308" 
d="M145 30q0 -12 -9 -21t-21 -9q-13 0 -21.5 9t-8.5 21v680q0 12 9 21t21 9q13 0 21.5 -9t8.5 -21v-680zM267 332q-17 0 -27.5 10.5t-10.5 27.5v22q0 17 10.5 27.5t27.5 10.5h7q17 0 27.5 -10.5t10.5 -27.5v-22q0 -17 -10.5 -27.5t-27.5 -10.5h-7z" />
    <glyph glyph-name="Lslash" unicode="&#x141;" horiz-adv-x="579" 
d="M73 329q-14 0 -20.5 8.5t-6.5 18.5q0 17 17 25l224 99q7 3 14 3q14 0 20 -10t6 -18q0 -17 -18 -25l-224 -99q-2 -1 -6 -1.5t-6 -0.5zM201 51l-7 9h334q12 0 21 -9t9 -21q0 -13 -9 -21.5t-21 -8.5h-357q-13 0 -21.5 9t-8.5 21v640q0 12 9 21t21 9q13 0 21.5 -9t8.5 -21
v-619z" />
    <glyph glyph-name="lslash" unicode="&#x142;" horiz-adv-x="231" 
d="M16 330q-11 0 -18 8.5t-7 18.5q0 17 18 24l192 88q4 2 8.5 3t8.5 1q11 0 17.5 -8t6.5 -17q0 -10 -5.5 -16.5t-13.5 -10.5l-193 -87q-4 -2 -8 -3t-6 -1zM145 30q0 -12 -9 -21t-21 -9q-13 0 -21.5 9t-8.5 21v680q0 12 9 21t21 9q13 0 21.5 -9t8.5 -21v-680z" />
    <glyph glyph-name="Nacute" unicode="&#x143;" horiz-adv-x="728" 
d="M606 700q13 0 20.5 -8t7.5 -20v-640q0 -15 -9.5 -23.5t-21.5 -8.5q-6 0 -13 2.5t-11 7.5l-446 601l17 9v-593q0 -11 -8 -19t-20 -8q-13 0 -20.5 8t-7.5 19v643q0 15 9 22.5t20 7.5q6 0 13 -2.5t11 -8.5l441 -594l-10 -18v595q0 12 8.5 20t19.5 8zM367 746
q-10 0 -14.5 5.5t-4.5 12.5q0 5 2.5 9.5t7.5 8.5l89 69q6 4 13 7.5t16 3.5q13 0 21.5 -8.5t8.5 -21.5q0 -10 -5 -18t-14 -13l-98 -49q-5 -2 -10.5 -4t-11.5 -2z" />
    <glyph glyph-name="nacute" unicode="&#x144;" horiz-adv-x="578" 
d="M320 523q66 0 105.5 -26.5t57 -72t17.5 -100.5v-294q0 -12 -9 -21t-21 -9q-14 0 -22 9t-8 21v291q0 40 -13 73t-42.5 53t-77.5 20q-43 0 -81.5 -20t-62.5 -53t-24 -73v-291q0 -12 -9 -21t-21 -9q-14 0 -22 9t-8 21v448q0 12 8.5 21t21.5 9t21.5 -9t8.5 -21v-84l-23 -36
q2 32 20.5 61.5t47.5 53t64.5 37t71.5 13.5zM289 552q-5 0 -10.5 5.5t-5.5 12.5q0 6 5 14l61 95q5 8 13.5 15t20.5 7q15 0 24 -8t8 -23q0 -7 -2.5 -12.5t-7.5 -10.5l-75 -79q-6 -7 -14 -11.5t-17 -4.5z" />
    <glyph glyph-name="uni0145" unicode="&#x145;" horiz-adv-x="728" 
d="M606 700q13 0 20.5 -8t7.5 -20v-640q0 -15 -9.5 -23.5t-21.5 -8.5q-6 0 -13 2.5t-11 7.5l-446 601l17 9v-593q0 -11 -8 -19t-20 -8q-13 0 -20.5 8t-7.5 19v643q0 15 9 22.5t20 7.5q6 0 13 -2.5t11 -8.5l441 -594l-10 -18v595q0 12 8.5 20t19.5 8zM424 -107
q0 -20 -11 -37.5t-28.5 -28t-37.5 -10.5q-19 0 -27 6t-8 14q0 9 4.5 14t10.5 5q5 0 11.5 -2.5t17.5 -0.5q9 1 14 9t5 23q0 12 -10 12q-6 0 -9.5 -4t-12.5 -4q-12 -1 -19 8t-7 19q0 17 14 27t38 10q23 0 39 -15t16 -45z" />
    <glyph glyph-name="uni0146" unicode="&#x146;" horiz-adv-x="578" 
d="M320 523q66 0 105.5 -26.5t57 -72t17.5 -100.5v-294q0 -12 -9 -21t-21 -9q-14 0 -22 9t-8 21v291q0 40 -13 73t-42.5 53t-77.5 20q-43 0 -81.5 -20t-62.5 -53t-24 -73v-291q0 -12 -9 -21t-21 -9q-14 0 -22 9t-8 21v448q0 12 8.5 21t21.5 9t21.5 -9t8.5 -21v-84l-23 -36
q2 32 20.5 61.5t47.5 53t64.5 37t71.5 13.5zM344 -105q0 -27 -16 -52.5t-39 -42t-45 -16.5q-8 0 -15.5 5t-7.5 19t9.5 15.5t23.5 9.5q17 8 26 20t9 28q0 13 -7.5 20t-17.5 7q-7 0 -14 -2t-13 -6q-5 5 -9 11t-3 15q2 17 18.5 29.5t38.5 12.5q27 0 44.5 -22t17.5 -51z" />
    <glyph glyph-name="Ncaron" unicode="&#x147;" horiz-adv-x="728" 
d="M606 700q13 0 20.5 -8t7.5 -20v-640q0 -15 -9.5 -23.5t-21.5 -8.5q-6 0 -13 2.5t-11 7.5l-446 601l17 9v-593q0 -11 -8 -19t-20 -8q-13 0 -20.5 8t-7.5 19v643q0 15 9 22.5t20 7.5q6 0 13 -2.5t11 -8.5l441 -594l-10 -18v595q0 12 8.5 20t19.5 8zM356 802l88 70
q8 7 15 10t12 3q8 0 12.5 -4.5t4.5 -10.5q0 -4 -2 -8t-6 -9l-77 -82q-6 -9 -14 -13t-19 -4h-11q-11 0 -19 4t-15 13l-76 81q-5 5 -6.5 9t-1.5 8q0 6 4.5 10.5t11.5 4.5q11 0 27 -12l90 -67z" />
    <glyph glyph-name="ncaron" unicode="&#x148;" horiz-adv-x="578" 
d="M320 523q66 0 105.5 -26.5t57 -72t17.5 -100.5v-294q0 -12 -9 -21t-21 -9q-14 0 -22 9t-8 21v291q0 40 -13 73t-42.5 53t-77.5 20q-43 0 -81.5 -20t-62.5 -53t-24 -73v-291q0 -12 -9 -21t-21 -9q-14 0 -22 9t-8 21v448q0 12 8.5 21t21.5 9t21.5 -9t8.5 -21v-84l-23 -36
q2 32 20.5 61.5t47.5 53t64.5 37t71.5 13.5zM292 569q-22 0 -34 16l-71 78q-8 8 -8 17q0 7 5.5 11.5t13.5 4.5q10 0 26 -13l84 -68l-14 -2l82 70q8 7 14.5 10.5t13.5 3.5q8 0 13 -4.5t5 -11.5q0 -4 -2 -8.5t-7 -9.5l-72 -78q-11 -16 -33 -16h-16z" />
    <glyph glyph-name="napostrophe" unicode="&#x149;" horiz-adv-x="607" 
d="M-6 674q3 26 29 26h33q13 -1 16.5 -8.5t0.5 -19.5l-64 -216q-6 -21 -28 -21q-16 0 -13 26zM349 523q66 0 105.5 -26.5t57 -72t17.5 -100.5v-294q0 -12 -9 -21t-21 -9q-14 0 -22 9t-8 21v291q0 40 -13 73t-42.5 53t-77.5 20q-43 0 -81.5 -20t-62.5 -53t-24 -73v-291
q0 -12 -9 -21t-21 -9q-14 0 -22 9t-8 21v448q0 12 8.5 21t21.5 9t21.5 -9t8.5 -21v-84l-23 -36q2 32 20.5 61.5t47.5 53t64.5 37t71.5 13.5z" />
    <glyph glyph-name="Eng" unicode="&#x14a;" horiz-adv-x="748" 
d="M478 -200q-14 0 -23 7.5t-9 20.5t8.5 21t21.5 9q49 0 74 13t34.5 36.5t9.5 54.5l1 79l6 -31l-452 582l5 2v-564q0 -12 -9 -21t-21 -9q-13 0 -21.5 9t-8.5 21v640q0 14 9 22t22 8q7 0 14 -4t10 -9l454 -585l-9 -8v573q0 12 9 21t21 9q13 0 21.5 -9t8.5 -21v-623v-80
q0 -47 -17.5 -84.5t-55.5 -58.5t-103 -21z" />
    <glyph glyph-name="eng" unicode="&#x14b;" horiz-adv-x="578" 
d="M322 -200q-15 0 -24 7.5t-9 20.5t9 21t22 9q48 0 74 13t36 36.5t10 54.5v359q0 40 -13 73t-42.5 53t-77.5 20q-43 0 -81.5 -20t-62.5 -53t-24 -73v-291q0 -12 -9 -21t-21 -9q-14 0 -22 9t-8 21v448q0 12 8.5 21t21.5 9t21.5 -9t8.5 -21v-84l-23 -36q2 32 20.5 61.5
t47.5 53t64.5 37t71.5 13.5q66 0 105.5 -26.5t57 -72t17.5 -100.5v-360q0 -47 -18 -84.5t-57 -58.5t-103 -21z" />
    <glyph glyph-name="Omacron" unicode="&#x14c;" horiz-adv-x="766" 
d="M718 350q0 -79 -24.5 -144.5t-69.5 -114t-106.5 -75t-134.5 -26.5t-134.5 26.5t-106.5 75t-69.5 114t-24.5 144.5t24.5 144.5t69.5 114t106.5 75t134.5 26.5t134.5 -26.5t106.5 -75t69.5 -114t24.5 -144.5zM654 350q0 89 -34.5 156.5t-95.5 105.5t-141 38
q-79 0 -140.5 -38t-96 -105.5t-34.5 -156.5t34.5 -156.5t96 -105.5t140.5 -38q80 0 141 38t95.5 105.5t34.5 156.5zM259 788q-29 0 -29 25q0 26 29 26h255q29 0 29 -26q0 -25 -29 -25h-255z" />
    <glyph glyph-name="omacron" unicode="&#x14d;" horiz-adv-x="604" 
d="M555 256q0 -76 -33 -136.5t-90 -95t-130 -34.5q-71 0 -128.5 34.5t-91 95t-33.5 136.5q0 77 33.5 137t91 95t128.5 35q73 0 130 -35t90 -95t33 -137zM495 256q0 61 -25 108.5t-68.5 75t-99.5 27.5q-54 0 -98 -27.5t-69.5 -75t-25.5 -108.5t25.5 -108t69.5 -74.5t98 -27.5
q56 0 99.5 27.5t68.5 74.5t25 108zM180 612q-28 0 -28 26q0 27 28 27h240q28 0 28 -27q0 -26 -28 -26h-240z" />
    <glyph glyph-name="Obreve" unicode="&#x14e;" horiz-adv-x="766" 
d="M718 350q0 -79 -24.5 -144.5t-69.5 -114t-106.5 -75t-134.5 -26.5t-134.5 26.5t-106.5 75t-69.5 114t-24.5 144.5t24.5 144.5t69.5 114t106.5 75t134.5 26.5t134.5 -26.5t106.5 -75t69.5 -114t24.5 -144.5zM654 350q0 89 -34.5 156.5t-95.5 105.5t-141 38
q-79 0 -140.5 -38t-96 -105.5t-34.5 -156.5t34.5 -156.5t96 -105.5t140.5 -38q80 0 141 38t95.5 105.5t34.5 156.5zM383 774q-51 0 -87 26.5t-50 74.5q-4 14 1 22t18 8q12 0 17.5 -5.5t12.5 -16.5q13 -28 34.5 -43t53.5 -15q62 0 88 58q6 11 12.5 16t17.5 5q13 0 18 -7
t1 -22q-13 -48 -49 -74.5t-88 -26.5z" />
    <glyph glyph-name="obreve" unicode="&#x14f;" horiz-adv-x="604" 
d="M555 256q0 -76 -33 -136.5t-90 -95t-130 -34.5q-71 0 -128.5 34.5t-91 95t-33.5 136.5q0 77 33.5 137t91 95t128.5 35q73 0 130 -35t90 -95t33 -137zM495 256q0 61 -25 108.5t-68.5 75t-99.5 27.5q-54 0 -98 -27.5t-69.5 -75t-25.5 -108.5t25.5 -108t69.5 -74.5t98 -27.5
q56 0 99.5 27.5t68.5 74.5t25 108zM295 580q-34 0 -62.5 16.5t-47 44.5t-21.5 60q-2 11 4.5 19t17.5 8q13 0 20 -6.5t11 -17.5q6 -35 27.5 -54.5t50.5 -19.5q28 0 49.5 19.5t28.5 54.5q5 11 11.5 17.5t18.5 6.5q11 0 18 -7.5t4 -19.5q-3 -32 -21 -60t-46 -44.5t-63 -16.5z
" />
    <glyph glyph-name="Ohungarumlaut" unicode="&#x150;" horiz-adv-x="766" 
d="M718 350q0 -79 -24.5 -144.5t-69.5 -114t-106.5 -75t-134.5 -26.5t-134.5 26.5t-106.5 75t-69.5 114t-24.5 144.5t24.5 144.5t69.5 114t106.5 75t134.5 26.5t134.5 -26.5t106.5 -75t69.5 -114t24.5 -144.5zM654 350q0 89 -34.5 156.5t-95.5 105.5t-141 38
q-79 0 -140.5 -38t-96 -105.5t-34.5 -156.5t34.5 -156.5t96 -105.5t140.5 -38q80 0 141 38t95.5 105.5t34.5 156.5zM284 745q-15 0 -15 16q0 7 7 18l56 86q5 7 12.5 13.5t19.5 6.5q14 0 23.5 -8.5t9.5 -22.5q0 -7 -2.5 -12t-6.5 -10l-69 -69q-7 -7 -15.5 -12.5t-19.5 -5.5z
M441 745q-16 0 -16 15q0 8 7 19l57 86q5 7 12.5 13t19.5 6t22.5 -7t10.5 -23q0 -7 -2.5 -12t-7.5 -10l-68 -69q-8 -7 -16 -12.5t-19 -5.5z" />
    <glyph glyph-name="ohungarumlaut" unicode="&#x151;" horiz-adv-x="604" 
d="M555 256q0 -76 -33 -136.5t-90 -95t-130 -34.5q-71 0 -128.5 34.5t-91 95t-33.5 136.5q0 77 33.5 137t91 95t128.5 35q73 0 130 -35t90 -95t33 -137zM495 256q0 61 -25 108.5t-68.5 75t-99.5 27.5q-54 0 -98 -27.5t-69.5 -75t-25.5 -108.5t25.5 -108t69.5 -74.5t98 -27.5
q56 0 99.5 27.5t68.5 74.5t25 108zM210 570q-8 0 -12 5t-5 11q0 7 7 18l57 86q4 7 12 13.5t20 6.5q13 0 21.5 -7.5t8.5 -22.5q0 -6 -3 -11t-7 -10l-66 -71q-7 -7 -14.5 -12.5t-18.5 -5.5zM351 570q-7 0 -11.5 5t-4.5 10q0 8 7 19l57 86q4 7 11.5 13t19.5 6q13 0 21.5 -7
t8.5 -21q0 -7 -2.5 -12t-6.5 -10l-66 -71q-7 -7 -15 -12.5t-19 -5.5z" />
    <glyph glyph-name="OE" unicode="&#x152;" horiz-adv-x="990" 
d="M913 60q12 0 21 -9t9 -21q0 -13 -9 -21.5t-21 -8.5h-573q-99 0 -164 47.5t-96.5 127t-31.5 175.5q0 69 17.5 132t53.5 112.5t91.5 77.5t129.5 28h573q12 0 21 -9t9 -21q0 -13 -9 -21.5t-21 -8.5h-334l7 8v-269l-8 12h290q12 0 21 -9t9 -22t-9 -21t-21 -8h-290l8 9v-287
l-6 7h333zM534 60l-9 -11v600l6 -9h-183q-64 0 -109 -23t-74.5 -63.5t-43 -93t-13.5 -110.5q0 -80 24.5 -146t78 -105t137.5 -39h186z" />
    <glyph glyph-name="oe" unicode="&#x153;" horiz-adv-x="1011" 
d="M555 256q0 -76 -33 -136.5t-90 -95t-130 -34.5q-71 0 -128.5 34.5t-91 95t-33.5 136.5q0 77 33.5 137t91 95t128.5 35q73 0 130 -35t90 -95t33 -137zM495 256q0 61 -25 108.5t-68.5 75t-99.5 27.5q-54 0 -98 -27.5t-69.5 -75t-25.5 -108.5t25.5 -108t69.5 -74.5t98 -27.5
q56 0 99.5 27.5t68.5 74.5t25 108zM756 -10q-77 0 -136 33t-92 92t-33 138q0 85 33.5 145t87 92.5t113.5 32.5q44 0 85.5 -15.5t74 -46t52 -74.5t21.5 -102q-1 -12 -10 -20.5t-21 -8.5h-401l-12 54h394l-13 -12v20q-4 47 -30 80t-63 50t-77 17q-30 0 -61.5 -12t-57 -37.5
t-41.5 -65t-16 -93.5q0 -59 24 -107t69.5 -76t108.5 -28q35 0 63 10t49 26.5t35 34.5q11 9 22 9q10 0 17.5 -8t7.5 -18q0 -12 -10 -21q-30 -36 -78 -62.5t-105 -26.5z" />
    <glyph glyph-name="Racute" unicode="&#x154;" horiz-adv-x="670" 
d="M128 0q-15 0 -24.5 9t-9.5 21v640q0 12 9 21t21 9h270q57 0 102 -24.5t70.5 -67.5t25.5 -97q0 -44 -16 -81t-45 -62.5t-65 -37.5l-35 11q37 -3 69 -23.5t51.5 -56t20.5 -85.5q1 -43 4.5 -67t10.5 -36t18 -19q10 -6 13.5 -17t-2.5 -21q-4 -8 -11.5 -11.5t-15.5 -3.5t-16 4
q-14 8 -28.5 25t-24 50t-9.5 92q0 39 -12.5 64t-32 38.5t-43 19t-44.5 5.5h-233l11 14v-283q0 -12 -8 -21t-21 -9zM146 354h251q34 3 64 22.5t48.5 53.5t18.5 79q0 57 -38.5 94.5t-100.5 37.5h-239l7 14v-315zM334 746q-10 0 -14.5 5.5t-4.5 12.5q0 5 2.5 9.5t7.5 8.5l89 69
q6 4 13 7.5t16 3.5q13 0 21.5 -8.5t8.5 -21.5q0 -10 -5 -18t-14 -13l-98 -49q-5 -2 -10.5 -4t-11.5 -2z" />
    <glyph glyph-name="racute" unicode="&#x155;" horiz-adv-x="385" 
d="M109 0q-14 0 -22 9t-8 21v448q0 12 8.5 21t21.5 9t21.5 -9t8.5 -21v-150l-15 -3q3 35 17.5 69.5t39.5 63.5t59.5 47t77.5 18q18 0 35 -7.5t17 -24.5q0 -15 -8 -23t-19 -8q-9 0 -19.5 5t-27.5 5q-28 0 -56 -16.5t-51 -44.5t-36.5 -62.5t-13.5 -69.5v-247q0 -12 -9 -21
t-21 -9zM180 552q-5 0 -10.5 5.5t-5.5 12.5q0 6 5 14l61 95q5 8 13.5 15t20.5 7q15 0 24 -8t8 -23q0 -7 -2.5 -12.5t-7.5 -10.5l-75 -79q-6 -7 -14 -11.5t-17 -4.5z" />
    <glyph glyph-name="uni0156" unicode="&#x156;" horiz-adv-x="670" 
d="M128 0q-15 0 -24.5 9t-9.5 21v640q0 12 9 21t21 9h270q57 0 102 -24.5t70.5 -67.5t25.5 -97q0 -44 -16 -81t-45 -62.5t-65 -37.5l-35 11q37 -3 69 -23.5t51.5 -56t20.5 -85.5q1 -43 4.5 -67t10.5 -36t18 -19q10 -6 13.5 -17t-2.5 -21q-4 -8 -11.5 -11.5t-15.5 -3.5t-16 4
q-14 8 -28.5 25t-24 50t-9.5 92q0 39 -12.5 64t-32 38.5t-43 19t-44.5 5.5h-233l11 14v-283q0 -12 -8 -21t-21 -9zM146 354h251q34 3 64 22.5t48.5 53.5t18.5 79q0 57 -38.5 94.5t-100.5 37.5h-239l7 14v-315zM391 -107q0 -20 -11 -37.5t-28.5 -28t-37.5 -10.5q-19 0 -27 6
t-8 14q0 9 4.5 14t10.5 5q5 0 11.5 -2.5t17.5 -0.5q9 1 14 9t5 23q0 12 -10 12q-6 0 -9.5 -4t-12.5 -4q-12 -1 -19 8t-7 19q0 17 14 27t38 10q23 0 39 -15t16 -45z" />
    <glyph glyph-name="uni0157" unicode="&#x157;" horiz-adv-x="385" 
d="M109 0q-14 0 -22 9t-8 21v448q0 12 8.5 21t21.5 9t21.5 -9t8.5 -21v-150l-15 -3q3 35 17.5 69.5t39.5 63.5t59.5 47t77.5 18q18 0 35 -7.5t17 -24.5q0 -15 -8 -23t-19 -8q-9 0 -19.5 5t-27.5 5q-28 0 -56 -16.5t-51 -44.5t-36.5 -62.5t-13.5 -69.5v-247q0 -12 -9 -21
t-21 -9zM163 -105q0 -27 -16 -52.5t-39 -42t-45 -16.5q-8 0 -15.5 5t-7.5 19t9.5 15.5t23.5 9.5q17 8 26 20t9 28q0 13 -7.5 20t-17.5 7q-7 0 -14 -2t-13 -6q-5 5 -9 11t-3 15q2 17 18.5 29.5t38.5 12.5q27 0 44.5 -22t17.5 -51z" />
    <glyph glyph-name="Rcaron" unicode="&#x158;" horiz-adv-x="670" 
d="M128 0q-15 0 -24.5 9t-9.5 21v640q0 12 9 21t21 9h270q57 0 102 -24.5t70.5 -67.5t25.5 -97q0 -44 -16 -81t-45 -62.5t-65 -37.5l-35 11q37 -3 69 -23.5t51.5 -56t20.5 -85.5q1 -43 4.5 -67t10.5 -36t18 -19q10 -6 13.5 -17t-2.5 -21q-4 -8 -11.5 -11.5t-15.5 -3.5t-16 4
q-14 8 -28.5 25t-24 50t-9.5 92q0 39 -12.5 64t-32 38.5t-43 19t-44.5 5.5h-233l11 14v-283q0 -12 -8 -21t-21 -9zM146 354h251q34 3 64 22.5t48.5 53.5t18.5 79q0 57 -38.5 94.5t-100.5 37.5h-239l7 14v-315zM323 802l88 70q8 7 15 10t12 3q8 0 12.5 -4.5t4.5 -10.5
q0 -4 -2 -8t-6 -9l-77 -82q-6 -9 -14 -13t-19 -4h-11q-11 0 -19 4t-15 13l-76 81q-5 5 -6.5 9t-1.5 8q0 6 4.5 10.5t11.5 4.5q11 0 27 -12l90 -67z" />
    <glyph glyph-name="rcaron" unicode="&#x159;" horiz-adv-x="385" 
d="M109 0q-14 0 -22 9t-8 21v448q0 12 8.5 21t21.5 9t21.5 -9t8.5 -21v-150l-15 -3q3 35 17.5 69.5t39.5 63.5t59.5 47t77.5 18q18 0 35 -7.5t17 -24.5q0 -15 -8 -23t-19 -8q-9 0 -19.5 5t-27.5 5q-28 0 -56 -16.5t-51 -44.5t-36.5 -62.5t-13.5 -69.5v-247q0 -12 -9 -21
t-21 -9zM183 569q-22 0 -34 16l-71 78q-8 8 -8 17q0 7 5.5 11.5t13.5 4.5q10 0 26 -13l84 -68l-14 -2l82 70q8 7 14.5 10.5t13.5 3.5q8 0 13 -4.5t5 -11.5q0 -4 -2 -8.5t-7 -9.5l-72 -78q-11 -16 -33 -16h-16z" />
    <glyph glyph-name="Sacute" unicode="&#x15a;" horiz-adv-x="562" 
d="M287 -10q-76 -1 -132 24t-107 75q-5 4 -8.5 10t-3.5 14q0 12 9.5 22t21.5 10t22 -10q39 -42 88.5 -64t106.5 -22q48 0 85.5 15t59.5 43t22 65q0 46 -25 74.5t-66 47t-91 33.5q-41 12 -78 27.5t-66 38t-45 55.5t-16 80q0 53 28 94t79.5 64.5t119.5 23.5q59 0 113.5 -20
t86.5 -59q15 -16 15 -29q0 -10 -10 -20t-22 -10q-10 0 -17 7q-17 21 -43 37.5t-57.5 25.5t-65.5 9q-47 0 -84.5 -14.5t-59 -41.5t-21.5 -65q0 -42 24 -69t63 -44.5t83 -32.5q43 -12 82.5 -27.5t70 -38.5t48 -58t17.5 -88q0 -51 -29 -92t-79.5 -65t-118.5 -25zM284 746
q-10 0 -14.5 5.5t-4.5 12.5q0 5 2.5 9.5t7.5 8.5l89 69q6 4 13 7.5t16 3.5q13 0 21.5 -8.5t8.5 -21.5q0 -10 -5 -18t-14 -13l-98 -49q-5 -2 -10.5 -4t-11.5 -2z" />
    <glyph glyph-name="sacute" unicode="&#x15b;" horiz-adv-x="469" 
d="M50 81q-8 12 -7.5 23.5t12.5 18.5q8 7 18.5 6t19.5 -10q27 -35 65.5 -56.5t91.5 -21.5q28 0 55.5 9.5t45.5 29t18 49.5q0 31 -18 50t-46.5 30t-60.5 19q-34 9 -66 20.5t-56.5 29t-39.5 42.5t-15 61q0 42 23 74t62.5 50t89.5 18q25 0 54 -6.5t57 -21.5t50 -41
q9 -9 9 -20.5t-10 -20.5q-8 -6 -18.5 -6t-17.5 8q-24 27 -57 41t-71 14q-29 0 -54.5 -9.5t-42.5 -28.5t-17 -50q2 -29 20.5 -47t49 -30t68.5 -22q32 -8 61.5 -19t52 -27.5t36 -41.5t13.5 -63q0 -44 -24.5 -76t-65.5 -49t-91 -17q-54 0 -104.5 21t-89.5 70zM223 552
q-5 0 -10.5 5.5t-5.5 12.5q0 6 5 14l61 95q5 8 13.5 15t20.5 7q15 0 24 -8t8 -23q0 -7 -2.5 -12.5t-7.5 -10.5l-75 -79q-6 -7 -14 -11.5t-17 -4.5z" />
    <glyph glyph-name="Scircumflex" unicode="&#x15c;" horiz-adv-x="562" 
d="M287 -10q-76 -1 -132 24t-107 75q-5 4 -8.5 10t-3.5 14q0 12 9.5 22t21.5 10t22 -10q39 -42 88.5 -64t106.5 -22q48 0 85.5 15t59.5 43t22 65q0 46 -25 74.5t-66 47t-91 33.5q-41 12 -78 27.5t-66 38t-45 55.5t-16 80q0 53 28 94t79.5 64.5t119.5 23.5q59 0 113.5 -20
t86.5 -59q15 -16 15 -29q0 -10 -10 -20t-22 -10q-10 0 -17 7q-17 21 -43 37.5t-57.5 25.5t-65.5 9q-47 0 -84.5 -14.5t-59 -41.5t-21.5 -65q0 -42 24 -69t63 -44.5t83 -32.5q43 -12 82.5 -27.5t70 -38.5t48 -58t17.5 -88q0 -51 -29 -92t-79.5 -65t-118.5 -25zM289 843
l-88 -69q-8 -5 -14.5 -9t-12.5 -4q-7 0 -12 5t-5 10t2 8.5t6 8.5l77 82q7 8 14.5 12.5t18.5 4.5h11q11 0 18.5 -4.5t15.5 -12.5l76 -81q5 -5 6.5 -9t1.5 -8q0 -5 -4.5 -10t-11.5 -5q-6 0 -12.5 3.5t-14.5 9.5l-90 65z" />
    <glyph glyph-name="scircumflex" unicode="&#x15d;" horiz-adv-x="469" 
d="M50 81q-8 12 -7.5 23.5t12.5 18.5q8 7 18.5 6t19.5 -10q27 -35 65.5 -56.5t91.5 -21.5q28 0 55.5 9.5t45.5 29t18 49.5q0 31 -18 50t-46.5 30t-60.5 19q-34 9 -66 20.5t-56.5 29t-39.5 42.5t-15 61q0 42 23 74t62.5 50t89.5 18q25 0 54 -6.5t57 -21.5t50 -41
q9 -9 9 -20.5t-10 -20.5q-8 -6 -18.5 -6t-17.5 8q-24 27 -57 41t-71 14q-29 0 -54.5 -9.5t-42.5 -28.5t-17 -50q2 -29 20.5 -47t49 -30t68.5 -22q32 -8 61.5 -19t52 -27.5t36 -41.5t13.5 -63q0 -44 -24.5 -76t-65.5 -49t-91 -17q-54 0 -104.5 21t-89.5 70zM246 662l-87 -73
q-7 -6 -12.5 -10t-13.5 -4q-7 0 -12 5t-5 11q0 4 1.5 8t6.5 8l73 80q11 17 33 17h16q11 0 18.5 -3.5t13.5 -13.5l72 -79q4 -5 5.5 -8.5t1.5 -8.5t-4.5 -10t-11.5 -5q-8 0 -14 4t-13 10l-89 71z" />
    <glyph glyph-name="Scedilla" unicode="&#x15e;" horiz-adv-x="562" 
d="M287 -10q-76 -1 -132 24t-107 75q-5 4 -8.5 10t-3.5 14q0 12 9.5 22t21.5 10t22 -10q39 -42 88.5 -64t106.5 -22q48 0 85.5 15t59.5 43t22 65q0 46 -25 74.5t-66 47t-91 33.5q-41 12 -78 27.5t-66 38t-45 55.5t-16 80q0 53 28 94t79.5 64.5t119.5 23.5q59 0 113.5 -20
t86.5 -59q15 -16 15 -29q0 -10 -10 -20t-22 -10q-10 0 -17 7q-17 21 -43 37.5t-57.5 25.5t-65.5 9q-47 0 -84.5 -14.5t-59 -41.5t-21.5 -65q0 -42 24 -69t63 -44.5t83 -32.5q43 -12 82.5 -27.5t70 -38.5t48 -58t17.5 -88q0 -51 -29 -92t-79.5 -65t-118.5 -25zM215 -143
q-6 0 -16 4t-18 11.5t-8 15.5q0 11 7 18l87 109h38l-64 -139q-8 -19 -26 -19z" />
    <glyph glyph-name="scedilla" unicode="&#x15f;" horiz-adv-x="469" 
d="M50 81q-8 12 -7.5 23.5t12.5 18.5q8 7 18.5 6t19.5 -10q27 -35 65.5 -56.5t91.5 -21.5q28 0 55.5 9.5t45.5 29t18 49.5q0 31 -18 50t-46.5 30t-60.5 19q-34 9 -66 20.5t-56.5 29t-39.5 42.5t-15 61q0 42 23 74t62.5 50t89.5 18q25 0 54 -6.5t57 -21.5t50 -41
q9 -9 9 -20.5t-10 -20.5q-8 -6 -18.5 -6t-17.5 8q-24 27 -57 41t-71 14q-29 0 -54.5 -9.5t-42.5 -28.5t-17 -50q2 -29 20.5 -47t49 -30t68.5 -22q32 -8 61.5 -19t52 -27.5t36 -41.5t13.5 -63q0 -44 -24.5 -76t-65.5 -49t-91 -17q-54 0 -104.5 21t-89.5 70zM212 -143
q-7 0 -17 4t-18 11t-8 16q0 11 7 18l87 109h39l-64 -139q-9 -19 -26 -19z" />
    <glyph glyph-name="Scaron" unicode="&#x160;" horiz-adv-x="562" 
d="M287 -10q-76 -1 -132 24t-107 75q-5 4 -8.5 10t-3.5 14q0 12 9.5 22t21.5 10t22 -10q39 -42 88.5 -64t106.5 -22q48 0 85.5 15t59.5 43t22 65q0 46 -25 74.5t-66 47t-91 33.5q-41 12 -78 27.5t-66 38t-45 55.5t-16 80q0 53 28 94t79.5 64.5t119.5 23.5q59 0 113.5 -20
t86.5 -59q15 -16 15 -29q0 -10 -10 -20t-22 -10q-10 0 -17 7q-17 21 -43 37.5t-57.5 25.5t-65.5 9q-47 0 -84.5 -14.5t-59 -41.5t-21.5 -65q0 -42 24 -69t63 -44.5t83 -32.5q43 -12 82.5 -27.5t70 -38.5t48 -58t17.5 -88q0 -51 -29 -92t-79.5 -65t-118.5 -25zM272 802l88 70
q8 7 15 10t12 3q8 0 12.5 -4.5t4.5 -10.5q0 -4 -2 -8t-6 -9l-77 -82q-6 -9 -14 -13t-19 -4h-11q-11 0 -19 4t-15 13l-76 81q-5 5 -6.5 9t-1.5 8q0 6 4.5 10.5t11.5 4.5q11 0 27 -12l90 -67z" />
    <glyph glyph-name="scaron" unicode="&#x161;" horiz-adv-x="469" 
d="M50 81q-8 12 -7.5 23.5t12.5 18.5q8 7 18.5 6t19.5 -10q27 -35 65.5 -56.5t91.5 -21.5q28 0 55.5 9.5t45.5 29t18 49.5q0 31 -18 50t-46.5 30t-60.5 19q-34 9 -66 20.5t-56.5 29t-39.5 42.5t-15 61q0 42 23 74t62.5 50t89.5 18q25 0 54 -6.5t57 -21.5t50 -41
q9 -9 9 -20.5t-10 -20.5q-8 -6 -18.5 -6t-17.5 8q-24 27 -57 41t-71 14q-29 0 -54.5 -9.5t-42.5 -28.5t-17 -50q2 -29 20.5 -47t49 -30t68.5 -22q32 -8 61.5 -19t52 -27.5t36 -41.5t13.5 -63q0 -44 -24.5 -76t-65.5 -49t-91 -17q-54 0 -104.5 21t-89.5 70zM226 569
q-22 0 -34 16l-71 78q-8 8 -8 17q0 7 5.5 11.5t13.5 4.5q10 0 26 -13l84 -68l-14 -2l82 70q8 7 14.5 10.5t13.5 3.5q8 0 13 -4.5t5 -11.5q0 -4 -2 -8.5t-7 -9.5l-72 -78q-11 -16 -33 -16h-16z" />
    <glyph glyph-name="uni0162" unicode="&#x162;" horiz-adv-x="604" 
d="M302 0q-14 0 -22.5 9t-8.5 21v637h62v-637q0 -12 -9 -21t-22 -9zM64 643q-12 0 -21 8t-9 21q0 12 9 20t21 8h476q12 0 21 -8t9 -21t-9 -20.5t-21 -7.5h-476zM235 -143q-6 0 -16 4t-18 11.5t-8 15.5q0 11 7 18l87 109h38l-64 -139q-8 -19 -26 -19z" />
    <glyph glyph-name="uni0163" unicode="&#x163;" horiz-adv-x="339" 
d="M46 509h233q12 0 20 -8.5t8 -20.5q0 -11 -8 -19t-20 -8h-233q-12 0 -20.5 8.5t-8.5 19.5q0 12 8.5 20t20.5 8zM149 650q13 0 21.5 -9t8.5 -21v-502q0 -28 7.5 -42t19.5 -18.5t24 -4.5q8 0 14.5 2.5t14.5 2.5q9 0 15.5 -7t6.5 -18q0 -14 -16 -23.5t-38 -9.5q-9 0 -27 1.5
t-37 11t-31.5 33.5t-12.5 69v505q0 12 8.5 21t21.5 9zM173 -143q-7 0 -17 4t-18 11t-8 16q0 11 7 18l87 109h39l-64 -139q-9 -19 -26 -19z" />
    <glyph glyph-name="Tcaron" unicode="&#x164;" horiz-adv-x="604" 
d="M302 0q-14 0 -22.5 9t-8.5 21v637h62v-637q0 -12 -9 -21t-22 -9zM64 643q-12 0 -21 8t-9 21q0 12 9 20t21 8h476q12 0 21 -8t9 -21t-9 -20.5t-21 -7.5h-476zM293 802l88 70q8 7 15 10t12 3q8 0 12.5 -4.5t4.5 -10.5q0 -4 -2 -8t-6 -9l-77 -82q-6 -9 -14 -13t-19 -4h-11
q-11 0 -19 4t-15 13l-76 81q-5 5 -6.5 9t-1.5 8q0 6 4.5 10.5t11.5 4.5q11 0 27 -12l90 -67z" />
    <glyph glyph-name="tcaron" unicode="&#x165;" horiz-adv-x="339" 
d="M46 509h233q12 0 20 -8.5t8 -20.5q0 -11 -8 -19t-20 -8h-233q-12 0 -20.5 8.5t-8.5 19.5q0 12 8.5 20t20.5 8zM149 650q13 0 21.5 -9t8.5 -21v-502q0 -28 7.5 -42t19.5 -18.5t24 -4.5q8 0 14.5 2.5t14.5 2.5q9 0 15.5 -7t6.5 -18q0 -14 -16 -23.5t-38 -9.5q-9 0 -27 1.5
t-37 11t-31.5 33.5t-12.5 69v505q0 12 8.5 21t21.5 9zM355 696q0 -27 -16 -52.5t-39 -42t-45 -16.5q-8 0 -15.5 5t-7.5 19t9.5 15.5t23.5 9.5q17 8 26 20t9 28q0 13 -7.5 20t-17.5 7q-7 0 -14 -2t-13 -6q-5 5 -9 11t-3 15q2 17 18.5 29.5t38.5 12.5q27 0 44.5 -22t17.5 -51z
" />
    <glyph glyph-name="Tbar" unicode="&#x166;" horiz-adv-x="604" 
d="M223 302q-14 0 -22 7.5t-8 21.5q0 12 8 19.5t22 7.5h164q14 0 22 -7.5t8 -20.5t-8 -20.5t-22 -7.5h-164zM302 0q-14 0 -22.5 9t-8.5 21v637h62v-637q0 -12 -9 -21t-22 -9zM64 643q-12 0 -21 8t-9 21q0 12 9 20t21 8h476q12 0 21 -8t9 -21t-9 -20.5t-21 -7.5h-476z" />
    <glyph glyph-name="tbar" unicode="&#x167;" horiz-adv-x="339" 
d="M46 509h233q12 0 20 -8.5t8 -20.5q0 -11 -8 -19t-20 -8h-233q-12 0 -20.5 8.5t-8.5 19.5q0 12 8.5 20t20.5 8zM149 650q13 0 21.5 -9t8.5 -21v-502q0 -28 7.5 -42t19.5 -18.5t24 -4.5q8 0 14.5 2.5t14.5 2.5q9 0 15.5 -7t6.5 -18q0 -14 -16 -23.5t-38 -9.5q-9 0 -27 1.5
t-37 11t-31.5 33.5t-12.5 69v505q0 12 8.5 21t21.5 9zM88 225q-14 0 -22 7.5t-8 21.5q0 12 8 19.5t22 7.5h164q14 0 22 -7.5t8 -20.5t-8 -20.5t-22 -7.5h-164z" />
    <glyph glyph-name="Utilde" unicode="&#x168;" horiz-adv-x="713" 
d="M589 700q14 0 22 -8.5t8 -21.5v-414q0 -74 -35 -134t-94 -95.5t-133 -35.5t-133.5 35.5t-94.5 95.5t-35 134v414q0 13 8.5 21.5t23.5 8.5q12 0 21 -8.5t9 -21.5v-414q0 -58 27.5 -104t73.5 -73.5t100 -27.5q56 0 102 27.5t73.5 73.5t27.5 104v414q0 13 8 21.5t21 8.5z
M228 771q-13 0 -19.5 11.5t-3.5 32.5q7 32 31.5 49.5t55.5 17.5q25 0 50 -14.5t48.5 -29t40.5 -14.5q14 0 22.5 11t10.5 28q-1 12 5.5 19t16.5 7q15 0 21 -12t3 -31q-3 -22 -14.5 -38t-28 -24.5t-38.5 -8.5q-24 0 -49.5 14.5t-49.5 28.5t-41 14q-14 0 -24 -9.5t-15 -29.5
q1 -10 -6.5 -16t-15.5 -6z" />
    <glyph glyph-name="utilde" unicode="&#x169;" horiz-adv-x="569" 
d="M461 508q13 0 21.5 -9t8.5 -21v-282q0 -99 -56 -151t-151 -52q-94 0 -149.5 52t-55.5 151v282q0 12 8.5 21t21.5 9t21.5 -9t8.5 -21v-282q0 -72 38.5 -109.5t106.5 -37.5q69 0 108 37.5t39 109.5v282q0 12 8 21t22 9zM156 582q-16 0 -20.5 11t-1.5 32q6 33 31 50.5
t59 17.5q18 0 36.5 -9t36.5 -20t33.5 -20t28.5 -9q14 0 22.5 10t9.5 28q-1 11 6 18t17 7q17 0 22 -11.5t3 -30.5q-4 -22 -15.5 -38t-29.5 -24.5t-42 -8.5q-15 0 -33.5 8.5t-36.5 19.5t-34.5 19.5t-30.5 8.5q-13 0 -23 -8.5t-15 -28.5q1 -10 -6.5 -16t-16.5 -6z" />
    <glyph glyph-name="Umacron" unicode="&#x16a;" horiz-adv-x="713" 
d="M589 700q14 0 22 -8.5t8 -21.5v-414q0 -74 -35 -134t-94 -95.5t-133 -35.5t-133.5 35.5t-94.5 95.5t-35 134v414q0 13 8.5 21.5t23.5 8.5q12 0 21 -8.5t9 -21.5v-414q0 -58 27.5 -104t73.5 -73.5t100 -27.5q56 0 102 27.5t73.5 73.5t27.5 104v414q0 13 8 21.5t21 8.5z
M233 788q-29 0 -29 25q0 26 29 26h255q29 0 29 -26q0 -25 -29 -25h-255z" />
    <glyph glyph-name="umacron" unicode="&#x16b;" horiz-adv-x="569" 
d="M461 508q13 0 21.5 -9t8.5 -21v-282q0 -99 -56 -151t-151 -52q-94 0 -149.5 52t-55.5 151v282q0 12 8.5 21t21.5 9t21.5 -9t8.5 -21v-282q0 -72 38.5 -109.5t106.5 -37.5q69 0 108 37.5t39 109.5v282q0 12 8 21t22 9zM163 604q-28 0 -28 26q0 27 28 27h240q28 0 28 -27
q0 -26 -28 -26h-240z" />
    <glyph glyph-name="Ubreve" unicode="&#x16c;" horiz-adv-x="713" 
d="M589 700q14 0 22 -8.5t8 -21.5v-414q0 -74 -35 -134t-94 -95.5t-133 -35.5t-133.5 35.5t-94.5 95.5t-35 134v414q0 13 8.5 21.5t23.5 8.5q12 0 21 -8.5t9 -21.5v-414q0 -58 27.5 -104t73.5 -73.5t100 -27.5q56 0 102 27.5t73.5 73.5t27.5 104v414q0 13 8 21.5t21 8.5z
M357 774q-51 0 -87 26.5t-50 74.5q-4 14 1 22t18 8q12 0 17.5 -5.5t12.5 -16.5q13 -28 34.5 -43t53.5 -15q62 0 88 58q6 11 12.5 16t17.5 5q13 0 18 -7t1 -22q-13 -48 -49 -74.5t-88 -26.5z" />
    <glyph glyph-name="ubreve" unicode="&#x16d;" horiz-adv-x="569" 
d="M461 508q13 0 21.5 -9t8.5 -21v-282q0 -99 -56 -151t-151 -52q-94 0 -149.5 52t-55.5 151v282q0 12 8.5 21t21.5 9t21.5 -9t8.5 -21v-282q0 -72 38.5 -109.5t106.5 -37.5q69 0 108 37.5t39 109.5v282q0 12 8 21t22 9zM278 572q-34 0 -62.5 16.5t-47 44.5t-21.5 60
q-2 11 4.5 19t17.5 8q13 0 20 -6.5t11 -17.5q6 -35 27.5 -54.5t50.5 -19.5q28 0 49.5 19.5t28.5 54.5q5 11 11.5 17.5t18.5 6.5q11 0 18 -7.5t4 -19.5q-3 -32 -21 -60t-46 -44.5t-63 -16.5z" />
    <glyph glyph-name="Uring" unicode="&#x16e;" horiz-adv-x="713" 
d="M589 700q14 0 22 -8.5t8 -21.5v-414q0 -74 -35 -134t-94 -95.5t-133 -35.5t-133.5 35.5t-94.5 95.5t-35 134v414q0 13 8.5 21.5t23.5 8.5q12 0 21 -8.5t9 -21.5v-414q0 -58 27.5 -104t73.5 -73.5t100 -27.5q56 0 102 27.5t73.5 73.5t27.5 104v414q0 13 8 21.5t21 8.5z
M357 743q-27 0 -50.5 13t-37.5 35.5t-14 48.5q0 28 14 50t37.5 35.5t50.5 13.5t50.5 -13.5t37.5 -35.5t14 -50q0 -26 -14 -48.5t-37.5 -35.5t-50.5 -13zM357 784q24 0 41 16.5t17 39.5q0 25 -17 41t-41 16q-23 0 -40 -16t-17 -41q0 -23 17 -39.5t40 -16.5z" />
    <glyph glyph-name="uring" unicode="&#x16f;" horiz-adv-x="569" 
d="M461 508q13 0 21.5 -9t8.5 -21v-282q0 -99 -56 -151t-151 -52q-94 0 -149.5 52t-55.5 151v282q0 12 8.5 21t21.5 9t21.5 -9t8.5 -21v-282q0 -72 38.5 -109.5t106.5 -37.5q69 0 108 37.5t39 109.5v282q0 12 8 21t22 9zM286 555q-27 0 -50.5 13t-37.5 35.5t-14 49.5
t14 49.5t37.5 35.5t50.5 13t50.5 -13t37.5 -35.5t14 -49.5t-14 -49.5t-37.5 -35.5t-50.5 -13zM286 597q24 0 41 16.5t17 39.5q0 25 -17 41t-41 16q-23 0 -40 -16.5t-17 -40.5q0 -23 17 -39.5t40 -16.5z" />
    <glyph glyph-name="Uhungarumlaut" unicode="&#x170;" horiz-adv-x="713" 
d="M589 700q14 0 22 -8.5t8 -21.5v-414q0 -74 -35 -134t-94 -95.5t-133 -35.5t-133.5 35.5t-94.5 95.5t-35 134v414q0 13 8.5 21.5t23.5 8.5q12 0 21 -8.5t9 -21.5v-414q0 -58 27.5 -104t73.5 -73.5t100 -27.5q56 0 102 27.5t73.5 73.5t27.5 104v414q0 13 8 21.5t21 8.5z
M257 745q-15 0 -15 16q0 7 7 18l56 86q5 7 12.5 13.5t19.5 6.5q14 0 23.5 -8.5t9.5 -22.5q0 -7 -2.5 -12t-6.5 -10l-69 -69q-7 -7 -15.5 -12.5t-19.5 -5.5zM414 745q-16 0 -16 15q0 8 7 19l57 86q5 7 12.5 13t19.5 6t22.5 -7t10.5 -23q0 -7 -2.5 -12t-7.5 -10l-68 -69
q-8 -7 -16 -12.5t-19 -5.5z" />
    <glyph glyph-name="uhungarumlaut" unicode="&#x171;" horiz-adv-x="569" 
d="M461 508q13 0 21.5 -9t8.5 -21v-282q0 -99 -56 -151t-151 -52q-94 0 -149.5 52t-55.5 151v282q0 12 8.5 21t21.5 9t21.5 -9t8.5 -21v-282q0 -72 38.5 -109.5t106.5 -37.5q69 0 108 37.5t39 109.5v282q0 12 8 21t22 9zM193 562q-8 0 -12 5t-5 11q0 7 7 18l57 86
q4 7 12 13.5t20 6.5q13 0 21.5 -7.5t8.5 -22.5q0 -6 -3 -11t-7 -10l-66 -71q-7 -7 -14.5 -12.5t-18.5 -5.5zM334 562q-7 0 -11.5 5t-4.5 10q0 8 7 19l57 86q4 7 11.5 13t19.5 6q13 0 21.5 -7t8.5 -21q0 -7 -2.5 -12t-6.5 -10l-66 -71q-7 -7 -15 -12.5t-19 -5.5z" />
    <glyph glyph-name="Uogonek" unicode="&#x172;" horiz-adv-x="713" 
d="M432 -190q-37 0 -66.5 25t-29.5 70q0 28 10.5 50t27 38.5t36.5 27.5t39 17l-54 -44q-9 -1 -18.5 -2t-19.5 -1q-74 0 -133.5 35.5t-94.5 95.5t-35 134v414q0 13 8.5 21.5t23.5 8.5q13 0 21.5 -8.5t8.5 -21.5v-414q0 -58 27.5 -104t73.5 -73.5t100 -27.5q57 0 103 27.5
t73 73.5t27 104v414q0 13 8.5 21.5t20.5 8.5q14 0 22 -8.5t8 -21.5v-414q0 -47 -15 -91.5t-44 -80.5t-71 -57q-20 -11 -43.5 -25.5t-40 -34.5t-16.5 -50q0 -27 15.5 -41.5t33.5 -14.5q22 0 29 10q6 9 12.5 13t13.5 4q10 0 16 -6.5t6 -16.5q0 -14 -11 -27t-30 -20.5t-42 -7.5
z" />
    <glyph glyph-name="uogonek" unicode="&#x173;" horiz-adv-x="569" 
d="M376 -190q-41 0 -73.5 28t-32.5 74q0 30 11 53.5t28.5 40.5t38.5 28.5t43 18.5l-52 -55q-13 -3 -27 -4t-28 -1q-94 0 -149.5 52t-55.5 151v282q0 12 8.5 21t21.5 9t21.5 -9t8.5 -21v-282q0 -72 38.5 -109.5t106.5 -37.5q69 0 108 37.5t39 109.5v282q0 12 8 21t22 9
q13 0 21.5 -9t8.5 -21v-282q0 -58 -19.5 -101.5t-61.5 -68.5q-21 -12 -41 -25t-32.5 -31t-12.5 -48q0 -28 18 -44.5t41 -16.5q12 0 19 3.5t11 8.5q6 6 12 10.5t13 4.5q10 0 15.5 -6.5t5.5 -16.5q0 -14 -11 -27t-29.5 -20.5t-42.5 -7.5z" />
    <glyph glyph-name="Wcircumflex" unicode="&#x174;" horiz-adv-x="966" 
d="M904 702q13 0 22.5 -7.5t9.5 -22.5q0 -5 -2 -13l-221 -640q-3 -9 -11 -14t-16 -5q-10 0 -18 4.5t-12 14.5l-177 438l8 -2l-177 -436q-4 -10 -12.5 -14.5t-17.5 -4.5q-8 0 -15.5 5t-10.5 14l-221 640q-3 8 -3 12q0 15 11 23t22 8q10 0 18 -5t11 -14l201 -586l-11 -1
l174 434q3 9 10.5 14.5t17.5 4.5q10 1 17.5 -4.5t11.5 -14.5l172 -432l-11 -4l200 589q3 9 11 14t19 5zM491 843l-88 -69q-8 -5 -14.5 -9t-12.5 -4q-7 0 -12 5t-5 10t2 8.5t6 8.5l77 82q7 8 14.5 12.5t18.5 4.5h11q11 0 18.5 -4.5t15.5 -12.5l76 -81q5 -5 6.5 -9t1.5 -8
q0 -5 -4.5 -10t-11.5 -5q-6 0 -12.5 3.5t-14.5 9.5l-90 65z" />
    <glyph glyph-name="wcircumflex" unicode="&#x175;" horiz-adv-x="752" 
d="M686 522q11 0 20.5 -8t9.5 -22q0 -3 -1 -7t-2 -6l-154 -460q-4 -9 -12.5 -14.5t-17.5 -4.5q-18 1 -27 19l-141 332l18 -4l-125 -328q-8 -18 -27 -19q-9 -1 -18 4.5t-12 14.5l-158 460q-3 7 -3 13q0 13 8.5 21.5t22.5 8.5q9 0 16.5 -5t10.5 -15l142 -426l-19 1l129 325
q8 19 28 19q10 0 17 -5t11 -14l137 -326l-22 -1l141 427q6 20 28 20zM387 647l-87 -73q-7 -6 -12.5 -10t-13.5 -4q-7 0 -12 5t-5 11q0 4 1.5 8t6.5 8l73 80q11 17 33 17h16q11 0 18.5 -3.5t13.5 -13.5l72 -79q4 -5 5.5 -8.5t1.5 -8.5t-4.5 -10t-11.5 -5q-8 0 -14 4t-13 10
l-89 71z" />
    <glyph glyph-name="Ycircumflex" unicode="&#x176;" horiz-adv-x="559" 
d="M511 704q13 0 21.5 -9.5t8.5 -20.5q0 -5 -1.5 -9.5t-4.5 -9.5l-235 -323l12 39v-341q0 -12 -9 -21t-22 -9t-21.5 9t-8.5 21v334l5 -24l-229 313q-4 5 -6 10.5t-2 10.5q0 13 10.5 21.5t21.5 8.5q15 0 25 -14l215 -293l-15 2l209 291q10 14 26 14zM288 843l-88 -69
q-8 -5 -14.5 -9t-12.5 -4q-7 0 -12 5t-5 10t2 8.5t6 8.5l77 82q7 8 14.5 12.5t18.5 4.5h11q11 0 18.5 -4.5t15.5 -12.5l76 -81q5 -5 6.5 -9t1.5 -8q0 -5 -4.5 -10t-11.5 -5q-6 0 -12.5 3.5t-14.5 9.5l-90 65z" />
    <glyph glyph-name="ycircumflex" unicode="&#x177;" horiz-adv-x="568" 
d="M460 520q13 0 21.5 -9t8.5 -21v-441q0 -81 -32 -136.5t-86 -84t-123 -28.5q-43 0 -79.5 9.5t-59.5 24.5q-12 7 -18 17t-1 21q5 14 15.5 18.5t21.5 -0.5q17 -9 49 -22t73 -13q55 0 95.5 23t62.5 66.5t22 103.5v72l7 -24q-15 -31 -42.5 -55t-63 -37.5t-75.5 -13.5
q-60 0 -99.5 24.5t-58.5 67.5t-19 101v307q0 12 8 21t22 9q13 0 21.5 -9t8.5 -21v-298q0 -70 30.5 -108t99.5 -38q43 0 79 20.5t59 54t23 71.5v298q0 12 8.5 21t21.5 9zM295 662l-87 -73q-7 -6 -12.5 -10t-13.5 -4q-7 0 -12 5t-5 11q0 4 1.5 8t6.5 8l73 80q11 17 33 17h16
q11 0 18.5 -3.5t13.5 -13.5l72 -79q4 -5 5.5 -8.5t1.5 -8.5t-4.5 -10t-11.5 -5q-8 0 -14 4t-13 10l-89 71z" />
    <glyph glyph-name="Ydieresis" unicode="&#x178;" horiz-adv-x="559" 
d="M511 704q13 0 21.5 -9.5t8.5 -20.5q0 -5 -1.5 -9.5t-4.5 -9.5l-235 -323l12 39v-341q0 -12 -9 -21t-22 -9t-21.5 9t-8.5 21v334l5 -24l-229 313q-4 5 -6 10.5t-2 10.5q0 13 10.5 21.5t21.5 8.5q15 0 25 -14l215 -293l-15 2l209 291q10 14 26 14zM366 775q-19 0 -30 10.5
t-11 29.5v10q0 19 11.5 29.5t30.5 10.5t30 -10.5t11 -29.5v-10q0 -20 -11 -30t-31 -10zM194 775q-19 0 -30 10.5t-11 29.5v10q0 19 11.5 29.5t30.5 10.5t30 -10.5t11 -29.5v-10q0 -20 -11 -30t-31 -10z" />
    <glyph glyph-name="Zacute" unicode="&#x179;" horiz-adv-x="644" 
d="M565 700q15 0 24 -9t9 -21q0 -10 -6 -18l-455 -603l-2 8h429q12 0 21 -8t9 -20t-9 -20.5t-21 -8.5h-479q-14 0 -22.5 10t-8.5 21q0 10 6 18l453 598l6 -4h-409q-13 0 -21.5 8.5t-8.5 20.5t8.5 20t21.5 8h455zM326 746q-10 0 -14.5 5.5t-4.5 12.5q0 5 2.5 9.5t7.5 8.5
l89 69q6 4 13 7.5t16 3.5q13 0 21.5 -8.5t8.5 -21.5q0 -10 -5 -18t-14 -13l-98 -49q-5 -2 -10.5 -4t-11.5 -2z" />
    <glyph glyph-name="zacute" unicode="&#x17a;" horiz-adv-x="479" 
d="M399 56q12 0 20.5 -8.5t8.5 -19.5q0 -12 -8.5 -20t-20.5 -8h-325q-13 0 -21 10t-8 19q0 6 2 11.5t7 11.5l303 419l4 -9h-262q-12 0 -20.5 8.5t-8.5 19.5q0 12 8.5 20t20.5 8h307q11 0 19.5 -9t8.5 -21q0 -6 -2 -11t-6 -11l-301 -415l-12 5h286zM245 552q-5 0 -10.5 5.5
t-5.5 12.5q0 6 5 14l61 95q5 8 13.5 15t20.5 7q15 0 24 -8t8 -23q0 -7 -2.5 -12.5t-7.5 -10.5l-75 -79q-6 -7 -14 -11.5t-17 -4.5z" />
    <glyph glyph-name="Zdotaccent" unicode="&#x17b;" horiz-adv-x="644" 
d="M565 700q15 0 24 -9t9 -21q0 -10 -6 -18l-455 -603l-2 8h429q12 0 21 -8t9 -20t-9 -20.5t-21 -8.5h-479q-14 0 -22.5 10t-8.5 21q0 10 6 18l453 598l6 -4h-409q-13 0 -21.5 8.5t-8.5 20.5t8.5 20t21.5 8h455zM323 770q-21 0 -31.5 10.5t-10.5 29.5v10q0 20 11.5 30
t31.5 10q19 0 29.5 -10t10.5 -30v-10q0 -20 -10.5 -30t-30.5 -10z" />
    <glyph glyph-name="zdotaccent" unicode="&#x17c;" horiz-adv-x="479" 
d="M399 56q12 0 20.5 -8.5t8.5 -19.5q0 -12 -8.5 -20t-20.5 -8h-325q-13 0 -21 10t-8 19q0 6 2 11.5t7 11.5l303 419l4 -9h-262q-12 0 -20.5 8.5t-8.5 19.5q0 12 8.5 20t20.5 8h307q11 0 19.5 -9t8.5 -21q0 -6 -2 -11t-6 -11l-301 -415l-12 5h286zM257 587q-21 0 -31.5 9.5
t-10.5 27.5v10q0 18 11.5 27.5t31.5 9.5q19 0 29.5 -9.5t10.5 -27.5v-10q0 -18 -10.5 -27.5t-30.5 -9.5z" />
    <glyph glyph-name="Zcaron" unicode="&#x17d;" horiz-adv-x="644" 
d="M565 700q15 0 24 -9t9 -21q0 -10 -6 -18l-455 -603l-2 8h429q12 0 21 -8t9 -20t-9 -20.5t-21 -8.5h-479q-14 0 -22.5 10t-8.5 21q0 10 6 18l453 598l6 -4h-409q-13 0 -21.5 8.5t-8.5 20.5t8.5 20t21.5 8h455zM314 802l88 70q8 7 15 10t12 3q8 0 12.5 -4.5t4.5 -10.5
q0 -4 -2 -8t-6 -9l-77 -82q-6 -9 -14 -13t-19 -4h-11q-11 0 -19 4t-15 13l-76 81q-5 5 -6.5 9t-1.5 8q0 6 4.5 10.5t11.5 4.5q11 0 27 -12l90 -67z" />
    <glyph glyph-name="zcaron" unicode="&#x17e;" horiz-adv-x="479" 
d="M399 56q12 0 20.5 -8.5t8.5 -19.5q0 -12 -8.5 -20t-20.5 -8h-325q-13 0 -21 10t-8 19q0 6 2 11.5t7 11.5l303 419l4 -9h-262q-12 0 -20.5 8.5t-8.5 19.5q0 12 8.5 20t20.5 8h307q11 0 19.5 -9t8.5 -21q0 -6 -2 -11t-6 -11l-301 -415l-12 5h286zM248 569q-22 0 -34 16
l-71 78q-8 8 -8 17q0 7 5.5 11.5t13.5 4.5q10 0 26 -13l84 -68l-14 -2l82 70q8 7 14.5 10.5t13.5 3.5q8 0 13 -4.5t5 -11.5q0 -4 -2 -8.5t-7 -9.5l-72 -78q-11 -16 -33 -16h-16z" />
    <glyph glyph-name="uni018F" unicode="&#x18f;" horiz-adv-x="759" 
d="M379 -10q-64 0 -123 25.5t-105 71t-73.5 106.5t-29.5 133v19q0 15 10 23t23 8h596l5 -60h-571q4 -55 27 -103.5t60 -85t83 -57t98 -20.5q54 0 102.5 22t85.5 62t58.5 94.5t21.5 120.5q0 67 -21.5 122t-58.5 95t-85.5 62t-103.5 22q-75 0 -132 -26t-103 -82
q-9 -8 -19.5 -9.5t-20.5 5.5q-11 8 -12.5 21.5t8.5 23.5q54 64 121.5 95.5t157.5 31.5q69 0 129.5 -28t106 -77.5t71.5 -114.5t26 -140t-25.5 -140t-71.5 -114.5t-106 -77.5t-129 -28z" />
    <glyph glyph-name="florin" unicode="&#x192;" horiz-adv-x="572" 
d="M73 -73q-22 0 -40 6.5t-18 26.5q0 12 7 18.5t20 6.5q8 0 17 -3.5t17 -3.5q44 0 69 27.5t31 68.5l78 445q12 69 51 110.5t113 41.5q14 0 24.5 -1t19.5 -3q13 -2 19.5 -10t5.5 -20q-1 -10 -9 -16.5t-21 -5.5q-6 1 -13 1.5t-15 0.5q-50 0 -77 -26t-35 -71l-76 -442
q-13 -71 -53 -111t-115 -40zM153 371q-12 0 -20.5 8t-8.5 19q0 12 8.5 20t20.5 8l253 -3q13 0 21 -8t8 -20q0 -11 -8 -19t-21 -8z" />
    <glyph glyph-name="uni019D" unicode="&#x19d;" horiz-adv-x="728" 
d="M11 -198q-14 0 -22.5 8t-8.5 20q0 15 7.5 22.5t19.5 9.5q22 5 42 17t32.5 33t12.5 51v707q0 15 9 22.5t20 7.5q6 0 13 -2.5t11 -8.5l441 -594l-11 -18v595q0 12 8.5 20t20.5 8t20 -8t8 -20v-640q0 -15 -9.5 -23.5t-21.5 -8.5q-6 0 -13 2.5t-11 7.5l-446 601l18 9v-666
q0 -33 -10 -57.5t-25 -41.5t-34 -28t-37.5 -16.5t-33.5 -8.5z" />
    <glyph glyph-name="Ohorn" unicode="&#x1a0;" horiz-adv-x="766" 
d="M718 350q0 -79 -24.5 -144.5t-69.5 -114t-106.5 -75t-134.5 -26.5t-134.5 26.5t-106.5 75t-69.5 114t-24.5 144.5t24.5 144.5t69.5 114t106.5 75t134.5 26.5t134.5 -26.5t106.5 -75t69.5 -114t24.5 -144.5zM654 350q0 89 -34.5 156.5t-95.5 105.5t-141 38
q-79 0 -140.5 -38t-96 -105.5t-34.5 -156.5t34.5 -156.5t96 -105.5t140.5 -38q80 0 141 38t95.5 105.5t34.5 156.5zM462 646v53q47 0 70.5 17.5t23.5 59.5q0 14 6.5 25t19.5 11q16 0 21 -12t5 -24q0 -39 -17.5 -68.5t-49.5 -45.5t-79 -16z" />
    <glyph glyph-name="ohorn" unicode="&#x1a1;" horiz-adv-x="604" 
d="M555 256q0 -76 -33 -136.5t-90 -95t-130 -34.5q-71 0 -128.5 34.5t-91 95t-33.5 136.5q0 77 33.5 137t91 95t128.5 35q73 0 130 -35t90 -95t33 -137zM495 256q0 61 -25 108.5t-68.5 75t-99.5 27.5q-54 0 -98 -27.5t-69.5 -75t-25.5 -108.5t25.5 -108t69.5 -74.5t98 -27.5
q56 0 99.5 27.5t68.5 74.5t25 108zM393 454v53q47 0 70.5 17.5t23.5 59.5q0 14 6.5 25t19.5 11q16 0 21 -12t5 -24q0 -39 -17.5 -68.5t-49.5 -45.5t-79 -16z" />
    <glyph glyph-name="Uhorn" unicode="&#x1af;" horiz-adv-x="713" 
d="M589 700q14 0 22 -8.5t8 -21.5v-414q0 -74 -35 -134t-94 -95.5t-133 -35.5t-133.5 35.5t-94.5 95.5t-35 134v414q0 13 8.5 21.5t23.5 8.5q12 0 21 -8.5t9 -21.5v-414q0 -58 27.5 -104t73.5 -73.5t100 -27.5q56 0 102 27.5t73.5 73.5t27.5 104v414q0 13 8 21.5t21 8.5z
M586 647v53q47 0 70.5 17.5t23.5 59.5q0 14 6.5 25t19.5 11q16 0 21 -12t5 -24q0 -39 -17.5 -68.5t-49.5 -45.5t-79 -16z" />
    <glyph glyph-name="uhorn" unicode="&#x1b0;" horiz-adv-x="569" 
d="M461 508q13 0 21.5 -9t8.5 -21v-282q0 -99 -56 -151t-151 -52q-94 0 -149.5 52t-55.5 151v282q0 12 8.5 21t21.5 9t21.5 -9t8.5 -21v-282q0 -72 38.5 -109.5t106.5 -37.5q69 0 108 37.5t39 109.5v282q0 12 8 21t22 9zM456 455v53q47 0 70.5 17.5t23.5 59.5q0 14 6.5 25
t19.5 11q16 0 21 -12t5 -24q0 -39 -17.5 -68.5t-49.5 -45.5t-79 -16z" />
    <glyph glyph-name="uni01C4" unicode="&#x1c4;" horiz-adv-x="1363" 
d="M379 700q74 0 129.5 -28t91.5 -77.5t53.5 -112.5t17.5 -132q0 -96 -31.5 -175.5t-96 -127t-164.5 -47.5h-255q-12 0 -21 9t-9 21v640q0 12 9 21t21 9h255zM369 59q85 0 137 39t76.5 105.5t24.5 146.5q0 58 -13.5 110.5t-42 93t-74 64t-108.5 23.5h-219l7 9v-601l-6 10
h218zM1284 700q15 0 24 -9t9 -21q0 -10 -6 -18l-455 -603l-2 8h429q12 0 21 -8t9 -20t-9 -20.5t-21 -8.5h-479q-14 0 -22.5 10t-8.5 21q0 10 6 18l453 598l6 -4h-409q-13 0 -21.5 8.5t-8.5 20.5t8.5 20t21.5 8h455zM1033 802l88 70q8 7 15 10t12 3q8 0 12.5 -4.5t4.5 -10.5
q0 -4 -2 -8t-6 -9l-77 -82q-6 -9 -14 -13t-19 -4h-11q-11 0 -19 4t-15 13l-76 81q-5 5 -6.5 9t-1.5 8q0 6 4.5 10.5t11.5 4.5q11 0 27 -12l90 -67z" />
    <glyph glyph-name="uni01C5" unicode="&#x1c5;" horiz-adv-x="1198" 
d="M379 700q74 0 129.5 -28t91.5 -77.5t53.5 -112.5t17.5 -132q0 -96 -31.5 -175.5t-96 -127t-164.5 -47.5h-255q-12 0 -21 9t-9 21v640q0 12 9 21t21 9h255zM369 59q85 0 137 39t76.5 105.5t24.5 146.5q0 58 -13.5 110.5t-42 93t-74 64t-108.5 23.5h-219l7 9v-601l-6 10
h218zM1118 56q12 0 20.5 -8.5t8.5 -19.5q0 -12 -8.5 -20t-20.5 -8h-325q-13 0 -21 10t-8 19q0 6 2 11.5t7 11.5l303 419l4 -9h-262q-12 0 -20.5 8.5t-8.5 19.5q0 12 8.5 20t20.5 8h307q11 0 19.5 -9t8.5 -21q0 -6 -2 -11t-6 -11l-301 -415l-12 5h286zM967 569q-22 0 -34 16
l-71 78q-8 8 -8 17q0 7 5.5 11.5t13.5 4.5q10 0 26 -13l84 -68l-14 -2l82 70q8 7 14.5 10.5t13.5 3.5q8 0 13 -4.5t5 -11.5q0 -4 -2 -8.5t-7 -9.5l-72 -78q-11 -16 -33 -16h-16z" />
    <glyph glyph-name="uni01C6" unicode="&#x1c6;" horiz-adv-x="1085" 
d="M498 740q13 0 21.5 -8.5t8.5 -21.5v-680q0 -12 -9 -21t-21 -9q-13 0 -21.5 9t-8.5 21v119l17 14q0 -28 -15 -58.5t-42.5 -56.5t-64 -42t-78.5 -16q-67 0 -120.5 35t-84.5 95t-31 137q0 76 31 136.5t84 95t120 34.5q41 0 78 -15t65.5 -41t45 -59.5t16.5 -69.5l-21 15v357
q0 12 8.5 21t21.5 9zM290 46q54 0 94.5 27.5t64 75t23.5 108.5q0 60 -23.5 107.5t-64.5 75t-94 27.5q-52 0 -93.5 -27.5t-65 -75t-23.5 -107.5t23.5 -108t65 -75.5t93.5 -27.5zM1005 56q12 0 20.5 -8.5t8.5 -19.5q0 -12 -8.5 -20t-20.5 -8h-325q-13 0 -21 10t-8 19
q0 6 2 11.5t7 11.5l303 419l4 -9h-262q-12 0 -20.5 8.5t-8.5 19.5q0 12 8.5 20t20.5 8h307q11 0 19.5 -9t8.5 -21q0 -6 -2 -11t-6 -11l-301 -415l-12 5h286zM854 569q-22 0 -34 16l-71 78q-8 8 -8 17q0 7 5.5 11.5t13.5 4.5q10 0 26 -13l84 -68l-14 -2l82 70q8 7 14.5 10.5
t13.5 3.5q8 0 13 -4.5t5 -11.5q0 -4 -2 -8.5t-7 -9.5l-72 -78q-11 -16 -33 -16h-16z" />
    <glyph glyph-name="uni01C7" unicode="&#x1c7;" horiz-adv-x="1104" 
d="M481 59q12 0 21 -8.5t9 -20.5q0 -13 -9 -21.5t-21 -8.5h-357q-13 0 -21.5 9t-8.5 21v640q0 12 9 21t23 9q12 0 21.5 -9t9.5 -21v-628l-19 17h343zM792 -10q-63 0 -113 35t-76 92q-5 9 -5 16q0 13 10 20.5t20 7.5t16.5 -5t11.5 -12q19 -42 55 -68t81 -26q46 0 81 19.5
t54.5 54.5t19.5 80v466q0 12 9.5 21t22.5 9q14 0 22.5 -9t8.5 -21v-466q0 -62 -28 -110.5t-77 -76t-113 -27.5z" />
    <glyph glyph-name="uni01C8" unicode="&#x1c8;" horiz-adv-x="802" 
d="M481 59q12 0 21 -8.5t9 -20.5q0 -13 -9 -21.5t-21 -8.5h-357q-13 0 -21.5 9t-8.5 21v640q0 12 9 21t23 9q12 0 21.5 -9t9.5 -21v-628l-19 17h343zM684 -46q0 -48 -22.5 -81.5t-55.5 -51.5t-66 -18q-13 0 -20.5 8t-7.5 19v4q0 12 8 19t18 9q23 5 42.5 17t31.5 33t12 51
v516q0 12 8.5 21t21.5 9t21.5 -9t8.5 -21v-525zM654 588q-21 0 -31.5 9.5t-10.5 27.5v10q0 18 11.5 27.5t31.5 9.5q19 0 29.5 -9.5t10.5 -27.5v-10q0 -18 -10.5 -27.5t-30.5 -9.5z" />
    <glyph glyph-name="uni01C9" unicode="&#x1c9;" horiz-adv-x="485" 
d="M145 30q0 -12 -9 -21t-21 -9q-13 0 -21.5 9t-8.5 21v680q0 12 9 21t21 9q13 0 21.5 -9t8.5 -21v-680zM368 -46q0 -48 -22.5 -81.5t-55.5 -51.5t-66 -18q-13 0 -20.5 8t-7.5 19v4q0 12 8 19t18 9q23 5 42.5 17t31.5 33t12 51v516q0 12 8.5 21t21.5 9t21.5 -9t8.5 -21v-525
zM337 588q-21 0 -31.5 9.5t-10.5 27.5v10q0 18 11.5 27.5t31.5 9.5q19 0 29.5 -9.5t10.5 -27.5v-10q0 -18 -10.5 -27.5t-30.5 -9.5z" />
    <glyph glyph-name="uni01CA" unicode="&#x1ca;" horiz-adv-x="1299" 
d="M606 700q13 0 20.5 -8t7.5 -20v-640q0 -15 -9.5 -23.5t-21.5 -8.5q-6 0 -13 2.5t-11 7.5l-446 601l17 9v-593q0 -11 -8 -19t-20 -8q-13 0 -20.5 8t-7.5 19v643q0 15 9 22.5t20 7.5q6 0 13 -2.5t11 -8.5l441 -594l-10 -18v595q0 12 8.5 20t19.5 8zM988 -10q-63 0 -113 35
t-76 92q-5 9 -5 16q0 13 10 20.5t20 7.5t16.5 -5t11.5 -12q19 -42 55 -68t81 -26q46 0 81 19.5t54.5 54.5t19.5 80v466q0 12 9.5 21t22.5 9q14 0 22.5 -9t8.5 -21v-466q0 -62 -28 -110.5t-77 -76t-113 -27.5z" />
    <glyph glyph-name="uni01CB" unicode="&#x1cb;" horiz-adv-x="997" 
d="M606 700q13 0 20.5 -8t7.5 -20v-640q0 -15 -9.5 -23.5t-21.5 -8.5q-6 0 -13 2.5t-11 7.5l-446 601l17 9v-593q0 -11 -8 -19t-20 -8q-13 0 -20.5 8t-7.5 19v643q0 15 9 22.5t20 7.5q6 0 13 -2.5t11 -8.5l441 -594l-10 -18v595q0 12 8.5 20t19.5 8zM880 -46
q0 -48 -22.5 -81.5t-55.5 -51.5t-66 -18q-13 0 -20.5 8t-7.5 19v4q0 12 8 19t18 9q23 5 42.5 17t31.5 33t12 51v516q0 12 8.5 21t21.5 9t21.5 -9t8.5 -21v-525zM849 588q-21 0 -31.5 9.5t-10.5 27.5v10q0 18 11.5 27.5t31.5 9.5q19 0 29.5 -9.5t10.5 -27.5v-10
q0 -18 -10.5 -27.5t-30.5 -9.5z" />
    <glyph glyph-name="uni01CC" unicode="&#x1cc;" horiz-adv-x="848" 
d="M320 523q66 0 105.5 -26.5t57 -72t17.5 -100.5v-294q0 -12 -9 -21t-21 -9q-14 0 -22 9t-8 21v291q0 40 -13 73t-42.5 53t-77.5 20q-43 0 -81.5 -20t-62.5 -53t-24 -73v-291q0 -12 -9 -21t-21 -9q-14 0 -22 9t-8 21v448q0 12 8.5 21t21.5 9t21.5 -9t8.5 -21v-84l-23 -36
q2 32 20.5 61.5t47.5 53t64.5 37t71.5 13.5zM730 -46q0 -48 -22.5 -81.5t-55.5 -51.5t-66 -18q-13 0 -20.5 8t-7.5 19v4q0 12 8 19t18 9q23 5 42.5 17t31.5 33t12 51v516q0 12 8.5 21t21.5 9t21.5 -9t8.5 -21v-525zM700 588q-21 0 -31.5 9.5t-10.5 27.5v10q0 18 11.5 27.5
t31.5 9.5q19 0 29.5 -9.5t10.5 -27.5v-10q0 -18 -10.5 -27.5t-30.5 -9.5z" />
    <glyph glyph-name="uni01CD" unicode="&#x1cd;" horiz-adv-x="647" 
d="M328 623l-243 -604q-4 -10 -11 -15t-16 -5q-14 0 -21 7.5t-8 18.5q-1 5 1 12l264 646q5 11 12.5 15.5t17.5 4.5t17.5 -5.5t11.5 -14.5l263 -643q2 -6 2 -12q0 -14 -9 -21.5t-21 -7.5q-10 0 -17.5 5.5t-11.5 14.5l-249 608zM143 202l25 59h310l12 -59h-347zM316 802l88 70
q8 7 15 10t12 3q8 0 12.5 -4.5t4.5 -10.5q0 -4 -2 -8t-6 -9l-77 -82q-6 -9 -14 -13t-19 -4h-11q-11 0 -19 4t-15 13l-76 81q-5 5 -6.5 9t-1.5 8q0 6 4.5 10.5t11.5 4.5q11 0 27 -12l90 -67z" />
    <glyph glyph-name="uni01CE" unicode="&#x1ce;" horiz-adv-x="606" 
d="M498 511q13 0 21.5 -9t8.5 -22v-450q0 -12 -9 -21t-21 -9q-13 0 -21.5 9t-8.5 21v119l17 8q0 -28 -15.5 -57t-42.5 -54t-63.5 -40.5t-78.5 -15.5q-68 0 -121.5 35t-84 96t-30.5 137q0 78 31 137.5t84 93.5t120 34q43 0 80.5 -15t65.5 -41t43.5 -59.5t15.5 -69.5l-21 15
v127q0 13 8.5 22t21.5 9zM290 46q53 0 94 27.5t64.5 76t23.5 108.5q0 59 -23.5 106t-64.5 75t-94 28q-52 0 -93.5 -27t-65 -74t-23.5 -108q0 -60 23.5 -108.5t64.5 -76t94 -27.5zM287 569q-22 0 -34 16l-71 78q-8 8 -8 17q0 7 5.5 11.5t13.5 4.5q10 0 26 -13l84 -68l-14 -2
l82 70q8 7 14.5 10.5t13.5 3.5q8 0 13 -4.5t5 -11.5q0 -4 -2 -8.5t-7 -9.5l-72 -78q-11 -16 -33 -16h-16z" />
    <glyph glyph-name="uni01CF" unicode="&#x1cf;" horiz-adv-x="250" 
d="M157 31q-1 -13 -10.5 -22t-21.5 -9q-14 0 -22.5 9t-8.5 22v638q0 13 9 22t23 9q12 0 21.5 -9t9.5 -22v-638zM117 802l88 70q8 7 15 10t12 3q8 0 12.5 -4.5t4.5 -10.5q0 -4 -2 -8t-6 -9l-77 -82q-6 -9 -14 -13t-19 -4h-11q-11 0 -19 4t-15 13l-76 81q-5 5 -6.5 9t-1.5 8
q0 6 4.5 10.5t11.5 4.5q11 0 27 -12l90 -67z" />
    <glyph glyph-name="uni01D0" unicode="&#x1d0;" horiz-adv-x="214" 
d="M137 30q0 -12 -9 -21t-21 -9q-13 0 -21.5 9t-8.5 21v460q0 12 8.5 21t21.5 9t21.5 -9t8.5 -21v-460zM98 569q-22 0 -34 16l-71 78q-8 8 -8 17q0 7 5.5 11.5t13.5 4.5q10 0 26 -13l84 -68l-14 -2l82 70q8 7 14.5 10.5t13.5 3.5q8 0 13 -4.5t5 -11.5q0 -4 -2 -8.5t-7 -9.5
l-72 -78q-11 -16 -33 -16h-16z" />
    <glyph glyph-name="uni01D1" unicode="&#x1d1;" horiz-adv-x="766" 
d="M718 350q0 -79 -24.5 -144.5t-69.5 -114t-106.5 -75t-134.5 -26.5t-134.5 26.5t-106.5 75t-69.5 114t-24.5 144.5t24.5 144.5t69.5 114t106.5 75t134.5 26.5t134.5 -26.5t106.5 -75t69.5 -114t24.5 -144.5zM654 350q0 89 -34.5 156.5t-95.5 105.5t-141 38
q-79 0 -140.5 -38t-96 -105.5t-34.5 -156.5t34.5 -156.5t96 -105.5t140.5 -38q80 0 141 38t95.5 105.5t34.5 156.5zM374 802l88 70q8 7 15 10t12 3q8 0 12.5 -4.5t4.5 -10.5q0 -4 -2 -8t-6 -9l-77 -82q-6 -9 -14 -13t-19 -4h-11q-11 0 -19 4t-15 13l-76 81q-5 5 -6.5 9
t-1.5 8q0 6 4.5 10.5t11.5 4.5q11 0 27 -12l90 -67z" />
    <glyph glyph-name="uni01D2" unicode="&#x1d2;" horiz-adv-x="604" 
d="M555 256q0 -76 -33 -136.5t-90 -95t-130 -34.5q-71 0 -128.5 34.5t-91 95t-33.5 136.5q0 77 33.5 137t91 95t128.5 35q73 0 130 -35t90 -95t33 -137zM495 256q0 61 -25 108.5t-68.5 75t-99.5 27.5q-54 0 -98 -27.5t-69.5 -75t-25.5 -108.5t25.5 -108t69.5 -74.5t98 -27.5
q56 0 99.5 27.5t68.5 74.5t25 108zM293 577q-22 0 -34 16l-71 78q-8 8 -8 17q0 7 5.5 11.5t13.5 4.5q10 0 26 -13l84 -68l-14 -2l82 70q8 7 14.5 10.5t13.5 3.5q8 0 13 -4.5t5 -11.5q0 -4 -2 -8.5t-7 -9.5l-72 -78q-11 -16 -33 -16h-16z" />
    <glyph glyph-name="uni01D3" unicode="&#x1d3;" horiz-adv-x="713" 
d="M589 700q14 0 22 -8.5t8 -21.5v-414q0 -74 -35 -134t-94 -95.5t-133 -35.5t-133.5 35.5t-94.5 95.5t-35 134v414q0 13 8.5 21.5t23.5 8.5q12 0 21 -8.5t9 -21.5v-414q0 -58 27.5 -104t73.5 -73.5t100 -27.5q56 0 102 27.5t73.5 73.5t27.5 104v414q0 13 8 21.5t21 8.5z
M348 802l88 70q8 7 15 10t12 3q8 0 12.5 -4.5t4.5 -10.5q0 -4 -2 -8t-6 -9l-77 -82q-6 -9 -14 -13t-19 -4h-11q-11 0 -19 4t-15 13l-76 81q-5 5 -6.5 9t-1.5 8q0 6 4.5 10.5t11.5 4.5q11 0 27 -12l90 -67z" />
    <glyph glyph-name="uni01D4" unicode="&#x1d4;" horiz-adv-x="569" 
d="M461 508q13 0 21.5 -9t8.5 -21v-282q0 -99 -56 -151t-151 -52q-94 0 -149.5 52t-55.5 151v282q0 12 8.5 21t21.5 9t21.5 -9t8.5 -21v-282q0 -72 38.5 -109.5t106.5 -37.5q69 0 108 37.5t39 109.5v282q0 12 8 21t22 9zM276 569q-22 0 -34 16l-71 78q-8 8 -8 17
q0 7 5.5 11.5t13.5 4.5q10 0 26 -13l84 -68l-14 -2l82 70q8 7 14.5 10.5t13.5 3.5q8 0 13 -4.5t5 -11.5q0 -4 -2 -8.5t-7 -9.5l-72 -78q-11 -16 -33 -16h-16z" />
    <glyph glyph-name="Gcaron" unicode="&#x1e6;" horiz-adv-x="695" 
d="M408 -10q-77 0 -143 27t-114.5 75.5t-75.5 114.5t-27 143t27 143t75.5 114.5t114.5 75.5t143 27q53 0 102.5 -12.5t88.5 -37.5q7 -5 10.5 -11.5t3.5 -13.5q0 -14 -9 -22.5t-19 -8.5q-5 0 -9.5 1.5t-8.5 3.5q-34 19 -74 30t-85 11q-86 0 -153 -39t-105 -107t-38 -154
t38 -154t105 -107t153 -39q45 0 90.5 13t78.5 35l-5 -21v230l15 -14h-173q-13 0 -22 9t-9 21q0 14 9 22t22 8h191q13 0 21.5 -8.5t8.5 -21.5v-241q0 -8 -4 -15t-11 -12q-44 -30 -98.5 -47.5t-113.5 -17.5zM371 802l88 70q8 7 15 10t12 3q8 0 12.5 -4.5t4.5 -10.5q0 -4 -2 -8
t-6 -9l-77 -82q-6 -9 -14 -13t-19 -4h-11q-11 0 -19 4t-15 13l-76 81q-5 5 -6.5 9t-1.5 8q0 6 4.5 10.5t11.5 4.5q11 0 27 -12l90 -67z" />
    <glyph glyph-name="gcaron" unicode="&#x1e7;" horiz-adv-x="624" 
d="M292 523q45 0 83 -15.5t66.5 -40t44.5 -52t16 -52.5l-17 24v93q0 13 8.5 22t21.5 9q14 0 22 -9t8 -22v-433q0 -80 -33 -135t-89.5 -83.5t-128.5 -28.5q-35 0 -73.5 9t-66 23t-30.5 29q-8 9 -7.5 17.5t8.5 14.5q10 7 21 1.5t33 -14.5q10 -3 27 -9t40.5 -10.5t49.5 -4.5
q90 0 139.5 51.5t49.5 135.5v96l11 -3q-9 -36 -29.5 -63t-48.5 -45.5t-60.5 -28t-64.5 -9.5q-69 0 -124 35t-87.5 95t-32.5 137q0 76 32.5 136.5t87 95t123.5 34.5zM299 467q-55 0 -98.5 -27.5t-68 -75t-24.5 -107.5t24.5 -108t68 -75.5t98.5 -27.5t98 27t68 74.5t25 109.5
t-25 109.5t-68 74t-98 26.5zM306 569q-22 0 -34 16l-71 78q-8 8 -8 17q0 7 5.5 11.5t13.5 4.5q10 0 26 -13l84 -68l-14 -2l82 70q8 7 14.5 10.5t13.5 3.5q8 0 13 -4.5t5 -11.5q0 -4 -2 -8.5t-7 -9.5l-72 -78q-11 -16 -33 -16h-16z" />
    <glyph glyph-name="uni01EA" unicode="&#x1ea;" horiz-adv-x="766" 
d="M424 -190q-37 0 -66.5 25t-29.5 70q0 28 10 49t26 36t35.5 25.5t38.5 16.5l39 -29q-26 -2 -47.5 -14.5t-35 -31.5t-13.5 -40q0 -27 15 -41.5t34 -14.5q9 0 15.5 1.5t10.5 6.5q6 9 14 14t15 5q10 0 16 -6.5t6 -16.5q0 -14 -11.5 -27t-30 -20.5t-41.5 -7.5zM718 350
q0 -79 -24.5 -144.5t-69.5 -114t-106.5 -75t-134.5 -26.5t-134.5 26.5t-106.5 75t-69.5 114t-24.5 144.5t24.5 144.5t69.5 114t106.5 75t134.5 26.5t134.5 -26.5t106.5 -75t69.5 -114t24.5 -144.5zM654 350q0 89 -34.5 156.5t-95.5 105.5t-141 38q-79 0 -140.5 -38
t-96 -105.5t-34.5 -156.5t34.5 -156.5t96 -105.5t140.5 -38q80 0 141 38t95.5 105.5t34.5 156.5z" />
    <glyph glyph-name="uni01EB" unicode="&#x1eb;" horiz-adv-x="595" 
d="M491 256q0 61 -25 108.5t-68.5 75t-99.5 27.5q-55 0 -98.5 -27.5t-69 -75t-25.5 -108.5t25.5 -108t69 -74.5t98.5 -27.5q56 0 99.5 27.5t68.5 74.5t25 108zM348 -190q-38 0 -67.5 25.5t-29.5 72.5q0 29 10 51t26.5 37t36 25.5t38.5 16.5q-10 -16 -27.5 -28.5t-36.5 -19.5
q-71 0 -128.5 34.5t-91 95t-33.5 136.5q0 77 33.5 137t91 95t128.5 35q72 0 129 -35t90.5 -95t33.5 -137q0 -61 -23 -112.5t-62.5 -87t-91.5 -52.5q-29 -11 -49.5 -34t-20.5 -51t15.5 -43t34.5 -15q18 0 27 9q7 9 14 13.5t14 4.5q10 0 16 -6.5t6 -16.5q0 -14 -11.5 -27
t-30 -20.5t-41.5 -7.5z" />
    <glyph glyph-name="uni01F2" unicode="&#x1f2;" horiz-adv-x="1197" 
d="M379 700q74 0 129.5 -28t91.5 -77.5t53.5 -112.5t17.5 -132q0 -96 -31.5 -175.5t-96 -127t-164.5 -47.5h-255q-12 0 -21 9t-9 21v640q0 12 9 21t21 9h255zM369 59q85 0 137 39t76.5 105.5t24.5 146.5q0 58 -13.5 110.5t-42 93t-74 64t-108.5 23.5h-219l7 9v-601l-6 10
h218zM1117 56q12 0 20.5 -8.5t8.5 -19.5q0 -12 -8.5 -20t-20.5 -8h-325q-13 0 -21 10t-8 19q0 6 2 11.5t7 11.5l303 419l4 -9h-262q-12 0 -20.5 8.5t-8.5 19.5q0 12 8.5 20t20.5 8h307q11 0 19.5 -9t8.5 -21q0 -6 -2 -11t-6 -11l-301 -415l-12 5h286z" />
    <glyph glyph-name="Aringacute" unicode="&#x1fa;" horiz-adv-x="648" 
d="M324 662q-27 0 -50 13t-37.5 35.5t-14.5 49.5t14.5 49.5t37.5 35.5t50 13t50.5 -13t37.5 -35.5t14 -49.5t-14 -49.5t-37.5 -35.5t-50.5 -13zM324 704q25 0 41.5 16.5t16.5 39.5q0 25 -17 41t-41 16q-23 0 -40 -16.5t-17 -40.5q0 -23 17 -39.5t40 -16.5zM328 623
l-243 -604q-4 -10 -11 -15t-16 -5q-14 0 -21 7.5t-8 18.5q-1 5 1 12l264 646q5 11 12.5 15.5t17.5 4.5t17.5 -5.5t11.5 -14.5l263 -643q2 -6 2 -12q0 -14 -9 -21.5t-21 -7.5q-10 0 -17.5 5.5t-11.5 14.5l-249 608zM143 202l25 59h310l12 -59h-347zM327 903q-10 0 -14.5 5.5
t-4.5 12.5q0 5 2.5 9.5t7.5 8.5l89 69q6 4 13 7.5t16 3.5q13 0 21.5 -8.5t8.5 -21.5q0 -10 -5 -18t-14 -13l-98 -49q-5 -2 -10.5 -4t-11.5 -2z" />
    <glyph glyph-name="aringacute" unicode="&#x1fb;" horiz-adv-x="605" 
d="M498 511q13 0 21.5 -9t8.5 -22v-450q0 -12 -9 -21t-21 -9q-13 0 -21.5 9t-8.5 21v119l17 8q0 -28 -15.5 -57t-42.5 -54t-63.5 -40.5t-78.5 -15.5q-68 0 -121.5 35t-84 96t-30.5 137q0 78 31 137.5t84 93.5t120 34q43 0 80.5 -15t65.5 -41t43.5 -59.5t15.5 -69.5l-21 15
v127q0 13 8.5 22t21.5 9zM290 46q53 0 94 27.5t64.5 76t23.5 108.5q0 59 -23.5 106t-64.5 75t-94 28q-52 0 -93.5 -27t-65 -74t-23.5 -108q0 -60 23.5 -108.5t64.5 -76t94 -27.5zM309 555q-27 0 -50.5 13t-37.5 35.5t-14 49.5t14 49.5t37.5 35.5t50.5 13t50.5 -13
t37.5 -35.5t14 -49.5t-14 -49.5t-37.5 -35.5t-50.5 -13zM309 597q24 0 41 16.5t17 39.5q0 25 -17 41t-41 16q-23 0 -40 -16.5t-17 -40.5q0 -23 17 -39.5t40 -16.5zM312 786q-10 0 -14.5 5.5t-4.5 12.5q0 5 2.5 9.5t7.5 8.5l89 69q6 4 13 7.5t16 3.5q13 0 21.5 -8.5
t8.5 -21.5q0 -10 -5 -18t-14 -13l-98 -49q-5 -2 -10.5 -4t-11.5 -2z" />
    <glyph glyph-name="AEacute" unicode="&#x1fc;" horiz-adv-x="919" 
d="M175 227h300l-18 -22v418l15 -18l-412 -594q-9 -13 -24 -13q-10 0 -19 8t-9 21q0 10 5 19l449 641q6 7 13 10t14 3h353q12 0 21 -8.5t9 -21.5t-9 -21t-21 -8h-331l8 10v-275l-7 12h285q12 0 21 -8.5t9 -20.5q0 -13 -9 -21t-21 -8h-287l9 10v-295l-7 14h330q12 0 21 -9
t9 -21q0 -13 -9 -21t-21 -8h-354q-13 0 -22 9t-9 21v152l19 -13h-345zM627 746q-10 0 -14.5 5.5t-4.5 12.5q0 5 2.5 9.5t7.5 8.5l89 69q6 4 13 7.5t16 3.5q13 0 21.5 -8.5t8.5 -21.5q0 -10 -5 -18t-14 -13l-98 -49q-5 -2 -10.5 -4t-11.5 -2z" />
    <glyph glyph-name="aeacute" unicode="&#x1fd;" horiz-adv-x="903" 
d="M271 523q33 0 64 -7t56 -22.5t39.5 -41.5t14.5 -64v-132l-55 -3v112q0 43 -19 64.5t-46.5 29.5t-54.5 8q-34 0 -65 -13t-56 -32.5t-40 -41.5q-10 -12 -24 -12q-10 0 -17.5 7.5t-7.5 18.5q0 4 1.5 9t4.5 10q21 27 52 52t70.5 41.5t82.5 16.5zM210 -10q-38 0 -74.5 16.5
t-61 50t-24.5 84.5q0 55 33.5 92.5t95 57t144.5 19.5h480l-12 -12v20q-4 47 -30 80t-63 50t-77 17q-30 0 -61 -12t-57 -37.5t-42 -65t-16 -93.5q0 -59 24 -107t69.5 -76t108.5 -28q35 0 63 10t49.5 26.5t35.5 34.5q10 9 21 9t18 -8t7 -18q0 -12 -10 -21q-29 -36 -77.5 -62.5
t-104.5 -26.5q-78 0 -137 33t-92 92t-33 138q0 85 34 145t87 92.5t113 32.5q44 0 85.5 -15.5t74 -46t52 -74.5t21.5 -102q0 -12 -9 -20.5t-21 -8.5h-503q-64 0 -111.5 -13t-73.5 -39t-26 -63q0 -32 16 -53t40.5 -31.5t47.5 -10.5q44 0 82.5 19.5t67 47t39.5 50.5l30 -44
q-17 -26 -47.5 -56t-74 -51.5t-101.5 -21.5zM439 564q-5 0 -10.5 5.5t-5.5 12.5q0 6 5 14l61 95q5 8 13.5 15t20.5 7q15 0 24 -8t8 -23q0 -7 -2.5 -12.5t-7.5 -10.5l-75 -79q-6 -7 -14 -11.5t-17 -4.5z" />
    <glyph glyph-name="Oslashacute" unicode="&#x1fe;" horiz-adv-x="726" 
d="M93 -23q-10 0 -17.5 7.5t-7.5 18.5q0 9 6 18l573 692q6 8 12 10.5t14 2.5q10 0 18 -6.5t8 -17.5t-8 -20l-569 -688q-5 -7 -12 -12t-17 -5zM718 350q0 -79 -24.5 -144.5t-69.5 -114t-106.5 -75t-134.5 -26.5t-134.5 26.5t-106.5 75t-69.5 114t-24.5 144.5t24.5 144.5
t69.5 114t106.5 75t134.5 26.5t134.5 -26.5t106.5 -75t69.5 -114t24.5 -144.5zM654 350q0 89 -34.5 156.5t-95.5 105.5t-141 38q-79 0 -140.5 -38t-96 -105.5t-34.5 -156.5t34.5 -156.5t96 -105.5t140.5 -38q80 0 141 38t95.5 105.5t34.5 156.5zM366 746q-10 0 -14.5 5.5
t-4.5 12.5q0 5 2.5 9.5t7.5 8.5l89 69q6 4 13 7.5t16 3.5q13 0 21.5 -8.5t8.5 -21.5q0 -10 -5 -18t-14 -13l-98 -49q-5 -2 -10.5 -4t-11.5 -2z" />
    <glyph glyph-name="oslashacute" unicode="&#x1ff;" horiz-adv-x="604" 
d="M86 -27q-11 0 -19.5 8t-8.5 19t7 19l437 511q8 11 21 11q11 0 19.5 -8.5t8.5 -19.5t-7 -19l-438 -511q-8 -10 -20 -10zM555 256q0 -76 -33 -136.5t-90 -95t-130 -34.5q-71 0 -128.5 34.5t-91 95t-33.5 136.5q0 77 33.5 137t91 95t128.5 35q73 0 130 -35t90 -95t33 -137z
M495 256q0 61 -25 108.5t-68.5 75t-99.5 27.5q-54 0 -98 -27.5t-69.5 -75t-25.5 -108.5t25.5 -108t69.5 -74.5t98 -27.5q56 0 99.5 27.5t68.5 74.5t25 108zM290 555q-5 0 -10.5 5.5t-5.5 12.5q0 6 5 14l61 95q5 8 13.5 15t20.5 7q15 0 24 -8t8 -23q0 -7 -2.5 -12.5
t-7.5 -10.5l-75 -79q-6 -7 -14 -11.5t-17 -4.5z" />
    <glyph glyph-name="uni0200" unicode="&#x200;" horiz-adv-x="647" 
d="M328 623l-243 -604q-4 -10 -11 -15t-16 -5q-14 0 -21 7.5t-8 18.5q-1 5 1 12l264 646q5 11 12.5 15.5t17.5 4.5t17.5 -5.5t11.5 -14.5l263 -643q2 -6 2 -12q0 -14 -9 -21.5t-21 -7.5q-10 0 -17.5 5.5t-11.5 14.5l-249 608zM143 202l25 59h310l12 -59h-347zM276 755
q-6 0 -11 2.5t-11 4.5l-97 48q-20 11 -20 32q0 12 8.5 21t21.5 9q9 0 16.5 -3.5t12.5 -8.5l89 -69q5 -4 7.5 -8t2.5 -10q0 -7 -4.5 -12.5t-14.5 -5.5zM444 755q-6 0 -11.5 2t-10.5 4l-98 49q-19 11 -19 31q0 13 8.5 21.5t21.5 8.5q9 0 16 -3.5t13 -7.5l89 -69q5 -4 7.5 -8.5
t2.5 -9.5q0 -7 -4.5 -12.5t-14.5 -5.5z" />
    <glyph glyph-name="uni0201" unicode="&#x201;" horiz-adv-x="606" 
d="M498 511q13 0 21.5 -9t8.5 -22v-450q0 -12 -9 -21t-21 -9q-13 0 -21.5 9t-8.5 21v119l17 8q0 -28 -15.5 -57t-42.5 -54t-63.5 -40.5t-78.5 -15.5q-68 0 -121.5 35t-84 96t-30.5 137q0 78 31 137.5t84 93.5t120 34q43 0 80.5 -15t65.5 -41t43.5 -59.5t15.5 -69.5l-21 15
v127q0 13 8.5 22t21.5 9zM290 46q53 0 94 27.5t64.5 76t23.5 108.5q0 59 -23.5 106t-64.5 75t-94 28q-52 0 -93.5 -27t-65 -74t-23.5 -108q0 -60 23.5 -108.5t64.5 -76t94 -27.5zM389 595q-7 0 -13.5 4t-11.5 8l-79 73q-6 5 -10 11.5t-4 14.5q0 14 9 21.5t21 7.5
q11 0 19 -5.5t12 -11.5l68 -89q8 -9 8 -16t-5.5 -12.5t-13.5 -5.5zM246 595q-6 0 -13 4t-12 8l-78 73q-7 5 -11 11.5t-4 14.5q0 14 9 21.5t21 7.5t19.5 -5.5t12.5 -11.5l68 -89q7 -9 7 -16t-5 -12.5t-14 -5.5z" />
    <glyph glyph-name="uni0202" unicode="&#x202;" horiz-adv-x="647" 
d="M328 623l-243 -604q-4 -10 -11 -15t-16 -5q-14 0 -21 7.5t-8 18.5q-1 5 1 12l264 646q5 11 12.5 15.5t17.5 4.5t17.5 -5.5t11.5 -14.5l263 -643q2 -6 2 -12q0 -14 -9 -21.5t-21 -7.5q-10 0 -17.5 5.5t-11.5 14.5l-249 608zM143 202l25 59h310l12 -59h-347zM323 865
q35 0 63 -13t46 -35.5t21 -49.5q3 -12 -4 -19.5t-18 -7.5q-12 0 -18.5 6.5t-11.5 17.5q-7 25 -28.5 38t-49.5 13q-29 0 -50.5 -13t-27.5 -38q-4 -11 -11 -17.5t-20 -6.5q-11 0 -17.5 7.5t-4.5 18.5q3 28 21 50.5t46.5 35.5t63.5 13z" />
    <glyph glyph-name="uni0203" unicode="&#x203;" horiz-adv-x="606" 
d="M498 511q13 0 21.5 -9t8.5 -22v-450q0 -12 -9 -21t-21 -9q-13 0 -21.5 9t-8.5 21v119l17 8q0 -28 -15.5 -57t-42.5 -54t-63.5 -40.5t-78.5 -15.5q-68 0 -121.5 35t-84 96t-30.5 137q0 78 31 137.5t84 93.5t120 34q43 0 80.5 -15t65.5 -41t43.5 -59.5t15.5 -69.5l-21 15
v127q0 13 8.5 22t21.5 9zM290 46q53 0 94 27.5t64.5 76t23.5 108.5q0 59 -23.5 106t-64.5 75t-94 28q-52 0 -93.5 -27t-65 -74t-23.5 -108q0 -60 23.5 -108.5t64.5 -76t94 -27.5zM304 722q35 0 63 -16.5t46 -44t21 -60.5q3 -12 -4 -19.5t-18 -7.5q-12 0 -19 6.5t-11 17.5
q-6 36 -28 55t-50 19q-29 0 -50.5 -20t-27.5 -54q-4 -11 -11 -17.5t-20 -6.5q-11 0 -17.5 7.5t-4.5 18.5q3 34 21 61t46.5 44t63.5 17z" />
    <glyph glyph-name="uni0204" unicode="&#x204;" horiz-adv-x="568" 
d="M124 700h367q12 0 21 -8.5t9 -21.5t-9 -21t-21 -8h-344l10 17v-281l-11 13h300q12 0 21 -9t9 -21q0 -13 -9 -21t-21 -8h-298l9 10v-288l-5 6h339q12 0 21 -9t9 -21q0 -13 -9 -21t-21 -8h-367q-12 0 -21 9t-9 21v640q0 12 9 21t21 9zM269 755q-6 0 -11 2.5t-11 4.5l-97 48
q-20 11 -20 32q0 12 8.5 21t21.5 9q9 0 16.5 -3.5t12.5 -8.5l89 -69q5 -4 7.5 -8t2.5 -10q0 -7 -4.5 -12.5t-14.5 -5.5zM437 755q-6 0 -11.5 2t-10.5 4l-98 49q-19 11 -19 31q0 13 8.5 21.5t21.5 8.5q9 0 16 -3.5t13 -7.5l89 -69q5 -4 7.5 -8.5t2.5 -9.5q0 -7 -4.5 -12.5
t-14.5 -5.5z" />
    <glyph glyph-name="uni0205" unicode="&#x205;" horiz-adv-x="565" 
d="M310 -10q-77 0 -136 33t-92 92t-33 138q0 85 33.5 145t87 92.5t113.5 32.5q44 0 85.5 -15.5t74 -46t52 -74.5t21.5 -102q-1 -12 -10 -20.5t-21 -8.5h-401l-12 54h394l-13 -12v20q-4 47 -30 80t-63 50t-77 17q-30 0 -61.5 -12t-57 -37.5t-41.5 -65t-16 -93.5
q0 -59 24 -107t69.5 -76t108.5 -28q35 0 63 10t49 26.5t35 34.5q11 9 22 9q10 0 17.5 -8t7.5 -18q0 -12 -10 -21q-30 -36 -78 -62.5t-105 -26.5zM380 595q-7 0 -13.5 4t-11.5 8l-79 73q-6 5 -10 11.5t-4 14.5q0 14 9 21.5t21 7.5q11 0 19 -5.5t12 -11.5l68 -89q8 -9 8 -16
t-5.5 -12.5t-13.5 -5.5zM237 595q-6 0 -13 4t-12 8l-78 73q-7 5 -11 11.5t-4 14.5q0 14 9 21.5t21 7.5t19.5 -5.5t12.5 -11.5l68 -89q7 -9 7 -16t-5 -12.5t-14 -5.5z" />
    <glyph glyph-name="uni0206" unicode="&#x206;" horiz-adv-x="568" 
d="M124 700h367q12 0 21 -8.5t9 -21.5t-9 -21t-21 -8h-344l10 17v-281l-11 13h300q12 0 21 -9t9 -21q0 -13 -9 -21t-21 -8h-298l9 10v-288l-5 6h339q12 0 21 -9t9 -21q0 -13 -9 -21t-21 -8h-367q-12 0 -21 9t-9 21v640q0 12 9 21t21 9zM317 865q35 0 63 -13t46 -35.5
t21 -49.5q3 -12 -4 -19.5t-18 -7.5q-12 0 -18.5 6.5t-11.5 17.5q-7 25 -28.5 38t-49.5 13q-29 0 -50.5 -13t-27.5 -38q-4 -11 -11 -17.5t-20 -6.5q-11 0 -17.5 7.5t-4.5 18.5q3 28 21 50.5t46.5 35.5t63.5 13z" />
    <glyph glyph-name="uni0207" unicode="&#x207;" horiz-adv-x="565" 
d="M310 -10q-77 0 -136 33t-92 92t-33 138q0 85 33.5 145t87 92.5t113.5 32.5q44 0 85.5 -15.5t74 -46t52 -74.5t21.5 -102q-1 -12 -10 -20.5t-21 -8.5h-401l-12 54h394l-13 -12v20q-4 47 -30 80t-63 50t-77 17q-30 0 -61.5 -12t-57 -37.5t-41.5 -65t-16 -93.5
q0 -59 24 -107t69.5 -76t108.5 -28q35 0 63 10t49 26.5t35 34.5q11 9 22 9q10 0 17.5 -8t7.5 -18q0 -12 -10 -21q-30 -36 -78 -62.5t-105 -26.5zM295 722q35 0 63 -16.5t46 -44t21 -60.5q3 -12 -4 -19.5t-18 -7.5q-12 0 -19 6.5t-11 17.5q-6 36 -28 55t-50 19
q-29 0 -50.5 -20t-27.5 -54q-4 -11 -11 -17.5t-20 -6.5q-11 0 -17.5 7.5t-4.5 18.5q3 34 21 61t46.5 44t63.5 17z" />
    <glyph glyph-name="uni0208" unicode="&#x208;" horiz-adv-x="250" 
d="M157 31q-1 -13 -10.5 -22t-21.5 -9q-14 0 -22.5 9t-8.5 22v638q0 13 9 22t23 9q12 0 21.5 -9t9.5 -22v-638zM77 755q-6 0 -11 2.5t-11 4.5l-97 48q-20 11 -20 32q0 12 8.5 21t21.5 9q9 0 16.5 -3.5t12.5 -8.5l89 -69q5 -4 7.5 -8t2.5 -10q0 -7 -4.5 -12.5t-14.5 -5.5z
M245 755q-6 0 -11.5 2t-10.5 4l-98 49q-19 11 -19 31q0 13 8.5 21.5t21.5 8.5q9 0 16 -3.5t13 -7.5l89 -69q5 -4 7.5 -8.5t2.5 -9.5q0 -7 -4.5 -12.5t-14.5 -5.5z" />
    <glyph glyph-name="uni0209" unicode="&#x209;" horiz-adv-x="214" 
d="M137 30q0 -12 -9 -21t-21 -9q-13 0 -21.5 9t-8.5 21v460q0 12 8.5 21t21.5 9t21.5 -9t8.5 -21v-460zM200 595q-7 0 -13.5 4t-11.5 8l-79 73q-6 5 -10 11.5t-4 14.5q0 14 9 21.5t21 7.5q11 0 19 -5.5t12 -11.5l68 -89q8 -9 8 -16t-5.5 -12.5t-13.5 -5.5zM57 595
q-6 0 -13 4t-12 8l-78 73q-7 5 -11 11.5t-4 14.5q0 14 9 21.5t21 7.5t19.5 -5.5t12.5 -11.5l68 -89q7 -9 7 -16t-5 -12.5t-14 -5.5z" />
    <glyph glyph-name="uni020A" unicode="&#x20a;" horiz-adv-x="250" 
d="M157 31q-1 -13 -10.5 -22t-21.5 -9q-14 0 -22.5 9t-8.5 22v638q0 13 9 22t23 9q12 0 21.5 -9t9.5 -22v-638zM125 865q35 0 63 -13t46 -35.5t21 -49.5q3 -12 -4 -19.5t-18 -7.5q-12 0 -18.5 6.5t-11.5 17.5q-7 25 -28.5 38t-49.5 13q-29 0 -50.5 -13t-27.5 -38
q-4 -11 -11 -17.5t-20 -6.5q-11 0 -17.5 7.5t-4.5 18.5q3 28 21 50.5t46.5 35.5t63.5 13z" />
    <glyph glyph-name="uni020B" unicode="&#x20b;" horiz-adv-x="214" 
d="M137 30q0 -12 -9 -21t-21 -9q-13 0 -21.5 9t-8.5 21v460q0 12 8.5 21t21.5 9t21.5 -9t8.5 -21v-460zM115 722q35 0 63 -16.5t46 -44t21 -60.5q3 -12 -4 -19.5t-18 -7.5q-12 0 -19 6.5t-11 17.5q-6 36 -28 55t-50 19q-29 0 -50.5 -20t-27.5 -54q-4 -11 -11 -17.5t-20 -6.5
q-11 0 -17.5 7.5t-4.5 18.5q3 34 21 61t46.5 44t63.5 17z" />
    <glyph glyph-name="uni020C" unicode="&#x20c;" horiz-adv-x="766" 
d="M718 350q0 -79 -24.5 -144.5t-69.5 -114t-106.5 -75t-134.5 -26.5t-134.5 26.5t-106.5 75t-69.5 114t-24.5 144.5t24.5 144.5t69.5 114t106.5 75t134.5 26.5t134.5 -26.5t106.5 -75t69.5 -114t24.5 -144.5zM654 350q0 89 -34.5 156.5t-95.5 105.5t-141 38
q-79 0 -140.5 -38t-96 -105.5t-34.5 -156.5t34.5 -156.5t96 -105.5t140.5 -38q80 0 141 38t95.5 105.5t34.5 156.5zM334 755q-6 0 -11 2.5t-11 4.5l-97 48q-20 11 -20 32q0 12 8.5 21t21.5 9q9 0 16.5 -3.5t12.5 -8.5l89 -69q5 -4 7.5 -8t2.5 -10q0 -7 -4.5 -12.5
t-14.5 -5.5zM502 755q-6 0 -11.5 2t-10.5 4l-98 49q-19 11 -19 31q0 13 8.5 21.5t21.5 8.5q9 0 16 -3.5t13 -7.5l89 -69q5 -4 7.5 -8.5t2.5 -9.5q0 -7 -4.5 -12.5t-14.5 -5.5z" />
    <glyph glyph-name="uni020D" unicode="&#x20d;" horiz-adv-x="604" 
d="M555 256q0 -76 -33 -136.5t-90 -95t-130 -34.5q-71 0 -128.5 34.5t-91 95t-33.5 136.5q0 77 33.5 137t91 95t128.5 35q73 0 130 -35t90 -95t33 -137zM495 256q0 61 -25 108.5t-68.5 75t-99.5 27.5q-54 0 -98 -27.5t-69.5 -75t-25.5 -108.5t25.5 -108t69.5 -74.5t98 -27.5
q56 0 99.5 27.5t68.5 74.5t25 108zM395 603q-7 0 -13.5 4t-11.5 8l-79 73q-6 5 -10 11.5t-4 14.5q0 14 9 21.5t21 7.5q11 0 19 -5.5t12 -11.5l68 -89q8 -9 8 -16t-5.5 -12.5t-13.5 -5.5zM252 603q-6 0 -13 4t-12 8l-78 73q-7 5 -11 11.5t-4 14.5q0 14 9 21.5t21 7.5
t19.5 -5.5t12.5 -11.5l68 -89q7 -9 7 -16t-5 -12.5t-14 -5.5z" />
    <glyph glyph-name="uni020E" unicode="&#x20e;" horiz-adv-x="766" 
d="M718 350q0 -79 -24.5 -144.5t-69.5 -114t-106.5 -75t-134.5 -26.5t-134.5 26.5t-106.5 75t-69.5 114t-24.5 144.5t24.5 144.5t69.5 114t106.5 75t134.5 26.5t134.5 -26.5t106.5 -75t69.5 -114t24.5 -144.5zM654 350q0 89 -34.5 156.5t-95.5 105.5t-141 38
q-79 0 -140.5 -38t-96 -105.5t-34.5 -156.5t34.5 -156.5t96 -105.5t140.5 -38q80 0 141 38t95.5 105.5t34.5 156.5zM382 865q35 0 63 -13t46 -35.5t21 -49.5q3 -12 -4 -19.5t-18 -7.5q-12 0 -18.5 6.5t-11.5 17.5q-7 25 -28.5 38t-49.5 13q-29 0 -50.5 -13t-27.5 -38
q-4 -11 -11 -17.5t-20 -6.5q-11 0 -17.5 7.5t-4.5 18.5q3 28 21 50.5t46.5 35.5t63.5 13z" />
    <glyph glyph-name="uni020F" unicode="&#x20f;" horiz-adv-x="604" 
d="M555 256q0 -76 -33 -136.5t-90 -95t-130 -34.5q-71 0 -128.5 34.5t-91 95t-33.5 136.5q0 77 33.5 137t91 95t128.5 35q73 0 130 -35t90 -95t33 -137zM495 256q0 61 -25 108.5t-68.5 75t-99.5 27.5q-54 0 -98 -27.5t-69.5 -75t-25.5 -108.5t25.5 -108t69.5 -74.5t98 -27.5
q56 0 99.5 27.5t68.5 74.5t25 108zM310 729q35 0 63 -16.5t46 -44t21 -60.5q3 -12 -4 -19.5t-18 -7.5q-12 0 -19 6.5t-11 17.5q-6 36 -28 55t-50 19q-29 0 -50.5 -20t-27.5 -54q-4 -11 -11 -17.5t-20 -6.5q-11 0 -17.5 7.5t-4.5 18.5q3 34 21 61t46.5 44t63.5 17z" />
    <glyph glyph-name="uni0210" unicode="&#x210;" horiz-adv-x="670" 
d="M128 0q-15 0 -24.5 9t-9.5 21v640q0 12 9 21t21 9h270q57 0 102 -24.5t70.5 -67.5t25.5 -97q0 -44 -16 -81t-45 -62.5t-65 -37.5l-35 11q37 -3 69 -23.5t51.5 -56t20.5 -85.5q1 -43 4.5 -67t10.5 -36t18 -19q10 -6 13.5 -17t-2.5 -21q-4 -8 -11.5 -11.5t-15.5 -3.5t-16 4
q-14 8 -28.5 25t-24 50t-9.5 92q0 39 -12.5 64t-32 38.5t-43 19t-44.5 5.5h-233l11 14v-283q0 -12 -8 -21t-21 -9zM146 354h251q34 3 64 22.5t48.5 53.5t18.5 79q0 57 -38.5 94.5t-100.5 37.5h-239l7 14v-315zM283 755q-6 0 -11 2.5t-11 4.5l-97 48q-20 11 -20 32
q0 12 8.5 21t21.5 9q9 0 16.5 -3.5t12.5 -8.5l89 -69q5 -4 7.5 -8t2.5 -10q0 -7 -4.5 -12.5t-14.5 -5.5zM451 755q-6 0 -11.5 2t-10.5 4l-98 49q-19 11 -19 31q0 13 8.5 21.5t21.5 8.5q9 0 16 -3.5t13 -7.5l89 -69q5 -4 7.5 -8.5t2.5 -9.5q0 -7 -4.5 -12.5t-14.5 -5.5z" />
    <glyph glyph-name="uni0211" unicode="&#x211;" horiz-adv-x="385" 
d="M109 0q-14 0 -22 9t-8 21v448q0 12 8.5 21t21.5 9t21.5 -9t8.5 -21v-150l-15 -3q3 35 17.5 69.5t39.5 63.5t59.5 47t77.5 18q18 0 35 -7.5t17 -24.5q0 -15 -8 -23t-19 -8q-9 0 -19.5 5t-27.5 5q-28 0 -56 -16.5t-51 -44.5t-36.5 -62.5t-13.5 -69.5v-247q0 -12 -9 -21
t-21 -9zM285 595q-7 0 -13.5 4t-11.5 8l-79 73q-6 5 -10 11.5t-4 14.5q0 14 9 21.5t21 7.5q11 0 19 -5.5t12 -11.5l68 -89q8 -9 8 -16t-5.5 -12.5t-13.5 -5.5zM142 595q-6 0 -13 4t-12 8l-78 73q-7 5 -11 11.5t-4 14.5q0 14 9 21.5t21 7.5t19.5 -5.5t12.5 -11.5l68 -89
q7 -9 7 -16t-5 -12.5t-14 -5.5z" />
    <glyph glyph-name="uni0212" unicode="&#x212;" horiz-adv-x="670" 
d="M128 0q-15 0 -24.5 9t-9.5 21v640q0 12 9 21t21 9h270q57 0 102 -24.5t70.5 -67.5t25.5 -97q0 -44 -16 -81t-45 -62.5t-65 -37.5l-35 11q37 -3 69 -23.5t51.5 -56t20.5 -85.5q1 -43 4.5 -67t10.5 -36t18 -19q10 -6 13.5 -17t-2.5 -21q-4 -8 -11.5 -11.5t-15.5 -3.5t-16 4
q-14 8 -28.5 25t-24 50t-9.5 92q0 39 -12.5 64t-32 38.5t-43 19t-44.5 5.5h-233l11 14v-283q0 -12 -8 -21t-21 -9zM146 354h251q34 3 64 22.5t48.5 53.5t18.5 79q0 57 -38.5 94.5t-100.5 37.5h-239l7 14v-315zM330 865q35 0 63 -13t46 -35.5t21 -49.5q3 -12 -4 -19.5
t-18 -7.5q-12 0 -18.5 6.5t-11.5 17.5q-7 25 -28.5 38t-49.5 13q-29 0 -50.5 -13t-27.5 -38q-4 -11 -11 -17.5t-20 -6.5q-11 0 -17.5 7.5t-4.5 18.5q3 28 21 50.5t46.5 35.5t63.5 13z" />
    <glyph glyph-name="uni0213" unicode="&#x213;" horiz-adv-x="385" 
d="M109 0q-14 0 -22 9t-8 21v448q0 12 8.5 21t21.5 9t21.5 -9t8.5 -21v-150l-15 -3q3 35 17.5 69.5t39.5 63.5t59.5 47t77.5 18q18 0 35 -7.5t17 -24.5q0 -15 -8 -23t-19 -8q-9 0 -19.5 5t-27.5 5q-28 0 -56 -16.5t-51 -44.5t-36.5 -62.5t-13.5 -69.5v-247q0 -12 -9 -21
t-21 -9zM200 722q35 0 63 -16.5t46 -44t21 -60.5q3 -12 -4 -19.5t-18 -7.5q-12 0 -19 6.5t-11 17.5q-6 36 -28 55t-50 19q-29 0 -50.5 -20t-27.5 -54q-4 -11 -11 -17.5t-20 -6.5q-11 0 -17.5 7.5t-4.5 18.5q3 34 21 61t46.5 44t63.5 17z" />
    <glyph glyph-name="uni0214" unicode="&#x214;" horiz-adv-x="713" 
d="M589 700q14 0 22 -8.5t8 -21.5v-414q0 -74 -35 -134t-94 -95.5t-133 -35.5t-133.5 35.5t-94.5 95.5t-35 134v414q0 13 8.5 21.5t23.5 8.5q12 0 21 -8.5t9 -21.5v-414q0 -58 27.5 -104t73.5 -73.5t100 -27.5q56 0 102 27.5t73.5 73.5t27.5 104v414q0 13 8 21.5t21 8.5z
M308 755q-6 0 -11 2.5t-11 4.5l-97 48q-20 11 -20 32q0 12 8.5 21t21.5 9q9 0 16.5 -3.5t12.5 -8.5l89 -69q5 -4 7.5 -8t2.5 -10q0 -7 -4.5 -12.5t-14.5 -5.5zM476 755q-6 0 -11.5 2t-10.5 4l-98 49q-19 11 -19 31q0 13 8.5 21.5t21.5 8.5q9 0 16 -3.5t13 -7.5l89 -69
q5 -4 7.5 -8.5t2.5 -9.5q0 -7 -4.5 -12.5t-14.5 -5.5z" />
    <glyph glyph-name="uni0215" unicode="&#x215;" horiz-adv-x="569" 
d="M461 508q13 0 21.5 -9t8.5 -21v-282q0 -99 -56 -151t-151 -52q-94 0 -149.5 52t-55.5 151v282q0 12 8.5 21t21.5 9t21.5 -9t8.5 -21v-282q0 -72 38.5 -109.5t106.5 -37.5q69 0 108 37.5t39 109.5v282q0 12 8 21t22 9zM378 595q-7 0 -13.5 4t-11.5 8l-79 73q-6 5 -10 11.5
t-4 14.5q0 14 9 21.5t21 7.5q11 0 19 -5.5t12 -11.5l68 -89q8 -9 8 -16t-5.5 -12.5t-13.5 -5.5zM235 595q-6 0 -13 4t-12 8l-78 73q-7 5 -11 11.5t-4 14.5q0 14 9 21.5t21 7.5t19.5 -5.5t12.5 -11.5l68 -89q7 -9 7 -16t-5 -12.5t-14 -5.5z" />
    <glyph glyph-name="uni0216" unicode="&#x216;" horiz-adv-x="713" 
d="M589 700q14 0 22 -8.5t8 -21.5v-414q0 -74 -35 -134t-94 -95.5t-133 -35.5t-133.5 35.5t-94.5 95.5t-35 134v414q0 13 8.5 21.5t23.5 8.5q12 0 21 -8.5t9 -21.5v-414q0 -58 27.5 -104t73.5 -73.5t100 -27.5q56 0 102 27.5t73.5 73.5t27.5 104v414q0 13 8 21.5t21 8.5z
M356 865q35 0 63 -13t46 -35.5t21 -49.5q3 -12 -4 -19.5t-18 -7.5q-12 0 -18.5 6.5t-11.5 17.5q-7 25 -28.5 38t-49.5 13q-29 0 -50.5 -13t-27.5 -38q-4 -11 -11 -17.5t-20 -6.5q-11 0 -17.5 7.5t-4.5 18.5q3 28 21 50.5t46.5 35.5t63.5 13z" />
    <glyph glyph-name="uni0217" unicode="&#x217;" horiz-adv-x="569" 
d="M461 508q13 0 21.5 -9t8.5 -21v-282q0 -99 -56 -151t-151 -52q-94 0 -149.5 52t-55.5 151v282q0 12 8.5 21t21.5 9t21.5 -9t8.5 -21v-282q0 -72 38.5 -109.5t106.5 -37.5q69 0 108 37.5t39 109.5v282q0 12 8 21t22 9zM293 722q35 0 63 -16.5t46 -44t21 -60.5
q3 -12 -4 -19.5t-18 -7.5q-12 0 -19 6.5t-11 17.5q-6 36 -28 55t-50 19q-29 0 -50.5 -20t-27.5 -54q-4 -11 -11 -17.5t-20 -6.5q-11 0 -17.5 7.5t-4.5 18.5q3 34 21 61t46.5 44t63.5 17z" />
    <glyph glyph-name="uni0218" unicode="&#x218;" horiz-adv-x="562" 
d="M287 -10q-76 -1 -132 24t-107 75q-5 4 -8.5 10t-3.5 14q0 12 9.5 22t21.5 10t22 -10q39 -42 88.5 -64t106.5 -22q48 0 85.5 15t59.5 43t22 65q0 46 -25 74.5t-66 47t-91 33.5q-41 12 -78 27.5t-66 38t-45 55.5t-16 80q0 53 28 94t79.5 64.5t119.5 23.5q59 0 113.5 -20
t86.5 -59q15 -16 15 -29q0 -10 -10 -20t-22 -10q-10 0 -17 7q-17 21 -43 37.5t-57.5 25.5t-65.5 9q-47 0 -84.5 -14.5t-59 -41.5t-21.5 -65q0 -42 24 -69t63 -44.5t83 -32.5q43 -12 82.5 -27.5t70 -38.5t48 -58t17.5 -88q0 -51 -29 -92t-79.5 -65t-118.5 -25zM341 -107
q0 -20 -11 -37.5t-28.5 -28t-37.5 -10.5q-19 0 -27 6t-8 14q0 9 4.5 14t10.5 5q5 0 11.5 -2.5t17.5 -0.5q9 1 14 9t5 23q0 12 -10 12q-6 0 -9.5 -4t-12.5 -4q-12 -1 -19 8t-7 19q0 17 14 27t38 10q23 0 39 -15t16 -45z" />
    <glyph glyph-name="uni0219" unicode="&#x219;" horiz-adv-x="469" 
d="M50 81q-8 12 -7.5 23.5t12.5 18.5q8 7 18.5 6t19.5 -10q27 -35 65.5 -56.5t91.5 -21.5q28 0 55.5 9.5t45.5 29t18 49.5q0 31 -18 50t-46.5 30t-60.5 19q-34 9 -66 20.5t-56.5 29t-39.5 42.5t-15 61q0 42 23 74t62.5 50t89.5 18q25 0 54 -6.5t57 -21.5t50 -41
q9 -9 9 -20.5t-10 -20.5q-8 -6 -18.5 -6t-17.5 8q-24 27 -57 41t-71 14q-29 0 -54.5 -9.5t-42.5 -28.5t-17 -50q2 -29 20.5 -47t49 -30t68.5 -22q32 -8 61.5 -19t52 -27.5t36 -41.5t13.5 -63q0 -44 -24.5 -76t-65.5 -49t-91 -17q-54 0 -104.5 21t-89.5 70zM290 -105
q0 -27 -16 -52.5t-39 -42t-45 -16.5q-8 0 -15.5 5t-7.5 19t9.5 15.5t23.5 9.5q17 8 26 20t9 28q0 13 -7.5 20t-17.5 7q-7 0 -14 -2t-13 -6q-5 5 -9 11t-3 15q2 17 18.5 29.5t38.5 12.5q27 0 44.5 -22t17.5 -51z" />
    <glyph glyph-name="uni021A" unicode="&#x21a;" horiz-adv-x="604" 
d="M302 0q-14 0 -22.5 9t-8.5 21v637h62v-637q0 -12 -9 -21t-22 -9zM64 643q-12 0 -21 8t-9 21q0 12 9 20t21 8h476q12 0 21 -8t9 -21t-9 -20.5t-21 -7.5h-476zM361 -107q0 -20 -11 -37.5t-28.5 -28t-37.5 -10.5q-19 0 -27 6t-8 14q0 9 4.5 14t10.5 5q5 0 11.5 -2.5
t17.5 -0.5q9 1 14 9t5 23q0 12 -10 12q-6 0 -9.5 -4t-12.5 -4q-12 -1 -19 8t-7 19q0 17 14 27t38 10q23 0 39 -15t16 -45z" />
    <glyph glyph-name="uni021B" unicode="&#x21b;" horiz-adv-x="339" 
d="M46 509h233q12 0 20 -8.5t8 -20.5q0 -11 -8 -19t-20 -8h-233q-12 0 -20.5 8.5t-8.5 19.5q0 12 8.5 20t20.5 8zM149 650q13 0 21.5 -9t8.5 -21v-502q0 -28 7.5 -42t19.5 -18.5t24 -4.5q8 0 14.5 2.5t14.5 2.5q9 0 15.5 -7t6.5 -18q0 -14 -16 -23.5t-38 -9.5q-9 0 -27 1.5
t-37 11t-31.5 33.5t-12.5 69v505q0 12 8.5 21t21.5 9zM251 -105q0 -27 -16 -52.5t-39 -42t-45 -16.5q-8 0 -15.5 5t-7.5 19t9.5 15.5t23.5 9.5q17 8 26 20t9 28q0 13 -7.5 20t-17.5 7q-7 0 -14 -2t-13 -6q-5 5 -9 11t-3 15q2 17 18.5 29.5t38.5 12.5q27 0 44.5 -22t17.5 -51
z" />
    <glyph glyph-name="uni022A" unicode="&#x22a;" horiz-adv-x="766" 
d="M718 350q0 -79 -24.5 -144.5t-69.5 -114t-106.5 -75t-134.5 -26.5t-134.5 26.5t-106.5 75t-69.5 114t-24.5 144.5t24.5 144.5t69.5 114t106.5 75t134.5 26.5t134.5 -26.5t106.5 -75t69.5 -114t24.5 -144.5zM654 350q0 89 -34.5 156.5t-95.5 105.5t-141 38
q-79 0 -140.5 -38t-96 -105.5t-34.5 -156.5t34.5 -156.5t96 -105.5t140.5 -38q80 0 141 38t95.5 105.5t34.5 156.5zM469 775q-19 0 -30 10.5t-11 29.5v10q0 19 11.5 29.5t30.5 10.5t30 -10.5t11 -29.5v-10q0 -20 -11 -30t-31 -10zM297 775q-19 0 -30 10.5t-11 29.5v10
q0 19 11.5 29.5t30.5 10.5t30 -10.5t11 -29.5v-10q0 -20 -11 -30t-31 -10zM259 957q-29 0 -29 25q0 26 29 26h255q29 0 29 -26q0 -25 -29 -25h-255z" />
    <glyph glyph-name="uni022B" unicode="&#x22b;" horiz-adv-x="604" 
d="M555 256q0 -76 -33 -136.5t-90 -95t-130 -34.5q-71 0 -128.5 34.5t-91 95t-33.5 136.5q0 77 33.5 137t91 95t128.5 35q73 0 130 -35t90 -95t33 -137zM495 256q0 61 -25 108.5t-68.5 75t-99.5 27.5q-54 0 -98 -27.5t-69.5 -75t-25.5 -108.5t25.5 -108t69.5 -74.5t98 -27.5
q56 0 99.5 27.5t68.5 74.5t25 108zM389 607q-20 0 -30.5 10.5t-10.5 29.5v10q0 19 11 29.5t31 10.5q19 0 29.5 -10.5t10.5 -29.5v-10q0 -20 -11 -30t-30 -10zM217 607q-20 0 -30.5 10.5t-10.5 29.5v10q0 19 11 29.5t30 10.5q20 0 30.5 -10.5t10.5 -29.5v-10q0 -20 -11 -30
t-30 -10zM180 755q-28 0 -28 26q0 27 28 27h240q28 0 28 -27q0 -26 -28 -26h-240z" />
    <glyph glyph-name="uni022C" unicode="&#x22c;" horiz-adv-x="766" 
d="M718 350q0 -79 -24.5 -144.5t-69.5 -114t-106.5 -75t-134.5 -26.5t-134.5 26.5t-106.5 75t-69.5 114t-24.5 144.5t24.5 144.5t69.5 114t106.5 75t134.5 26.5t134.5 -26.5t106.5 -75t69.5 -114t24.5 -144.5zM654 350q0 89 -34.5 156.5t-95.5 105.5t-141 38
q-79 0 -140.5 -38t-96 -105.5t-34.5 -156.5t34.5 -156.5t96 -105.5t140.5 -38q80 0 141 38t95.5 105.5t34.5 156.5zM254 771q-13 0 -19.5 11.5t-3.5 32.5q7 32 31.5 49.5t55.5 17.5q25 0 50 -14.5t48.5 -29t40.5 -14.5q14 0 22.5 11t10.5 28q-1 12 5.5 19t16.5 7
q15 0 21 -12t3 -31q-3 -22 -14.5 -38t-28 -24.5t-38.5 -8.5q-24 0 -49.5 14.5t-49.5 28.5t-41 14q-14 0 -24 -9.5t-15 -29.5q1 -10 -6.5 -16t-15.5 -6zM259 980q-29 0 -29 25q0 26 29 26h255q29 0 29 -26q0 -25 -29 -25h-255z" />
    <glyph glyph-name="uni022D" unicode="&#x22d;" horiz-adv-x="604" 
d="M555 256q0 -76 -33 -136.5t-90 -95t-130 -34.5q-71 0 -128.5 34.5t-91 95t-33.5 136.5q0 77 33.5 137t91 95t128.5 35q73 0 130 -35t90 -95t33 -137zM495 256q0 61 -25 108.5t-68.5 75t-99.5 27.5q-54 0 -98 -27.5t-69.5 -75t-25.5 -108.5t25.5 -108t69.5 -74.5t98 -27.5
q56 0 99.5 27.5t68.5 74.5t25 108zM173 589q-16 0 -20.5 11t-1.5 32q6 33 31 50.5t59 17.5q18 0 36.5 -9t36.5 -20t33.5 -20t28.5 -9q14 0 22.5 10t9.5 28q-1 11 6 18t17 7q17 0 22 -11.5t3 -30.5q-4 -22 -15.5 -38t-29.5 -24.5t-42 -8.5q-15 0 -33.5 8.5t-36.5 19.5
t-34.5 19.5t-30.5 8.5q-13 0 -23 -8.5t-15 -28.5q1 -10 -6.5 -16t-16.5 -6zM180 813q-28 0 -28 26q0 27 28 27h240q28 0 28 -27q0 -26 -28 -26h-240z" />
    <glyph glyph-name="uni0230" unicode="&#x230;" horiz-adv-x="766" 
d="M718 350q0 -79 -24.5 -144.5t-69.5 -114t-106.5 -75t-134.5 -26.5t-134.5 26.5t-106.5 75t-69.5 114t-24.5 144.5t24.5 144.5t69.5 114t106.5 75t134.5 26.5t134.5 -26.5t106.5 -75t69.5 -114t24.5 -144.5zM654 350q0 89 -34.5 156.5t-95.5 105.5t-141 38
q-79 0 -140.5 -38t-96 -105.5t-34.5 -156.5t34.5 -156.5t96 -105.5t140.5 -38q80 0 141 38t95.5 105.5t34.5 156.5zM383 770q-21 0 -31.5 10.5t-10.5 29.5v10q0 20 11.5 30t31.5 10q19 0 29.5 -10t10.5 -30v-10q0 -20 -10.5 -30t-30.5 -10zM259 958q-29 0 -29 25q0 26 29 26
h255q29 0 29 -26q0 -25 -29 -25h-255z" />
    <glyph glyph-name="uni0231" unicode="&#x231;" horiz-adv-x="604" 
d="M555 256q0 -76 -33 -136.5t-90 -95t-130 -34.5q-71 0 -128.5 34.5t-91 95t-33.5 136.5q0 77 33.5 137t91 95t128.5 35q73 0 130 -35t90 -95t33 -137zM495 256q0 61 -25 108.5t-68.5 75t-99.5 27.5q-54 0 -98 -27.5t-69.5 -75t-25.5 -108.5t25.5 -108t69.5 -74.5t98 -27.5
q56 0 99.5 27.5t68.5 74.5t25 108zM302 595q-21 0 -31.5 9.5t-10.5 27.5v10q0 18 11.5 27.5t31.5 9.5q19 0 29.5 -9.5t10.5 -27.5v-10q0 -18 -10.5 -27.5t-30.5 -9.5zM180 760q-28 0 -28 26q0 27 28 27h240q28 0 28 -27q0 -26 -28 -26h-240z" />
    <glyph glyph-name="uni0232" unicode="&#x232;" horiz-adv-x="559" 
d="M511 704q13 0 21.5 -9.5t8.5 -20.5q0 -5 -1.5 -9.5t-4.5 -9.5l-235 -323l12 39v-341q0 -12 -9 -21t-22 -9t-21.5 9t-8.5 21v334l5 -24l-229 313q-4 5 -6 10.5t-2 10.5q0 13 10.5 21.5t21.5 8.5q15 0 25 -14l215 -293l-15 2l209 291q10 14 26 14zM156 788q-29 0 -29 25
q0 26 29 26h255q29 0 29 -26q0 -25 -29 -25h-255z" />
    <glyph glyph-name="uni0233" unicode="&#x233;" horiz-adv-x="568" 
d="M460 520q13 0 21.5 -9t8.5 -21v-441q0 -81 -32 -136.5t-86 -84t-123 -28.5q-43 0 -79.5 9.5t-59.5 24.5q-12 7 -18 17t-1 21q5 14 15.5 18.5t21.5 -0.5q17 -9 49 -22t73 -13q55 0 95.5 23t62.5 66.5t22 103.5v72l7 -24q-15 -31 -42.5 -55t-63 -37.5t-75.5 -13.5
q-60 0 -99.5 24.5t-58.5 67.5t-19 101v307q0 12 8 21t22 9q13 0 21.5 -9t8.5 -21v-298q0 -70 30.5 -108t99.5 -38q43 0 79 20.5t59 54t23 71.5v298q0 12 8.5 21t21.5 9zM162 604q-28 0 -28 26q0 27 28 27h240q28 0 28 -27q0 -26 -28 -26h-240z" />
    <glyph glyph-name="uni0237" unicode="&#x237;" horiz-adv-x="241" 
d="M152 -46q0 -48 -22.5 -81.5t-55.5 -51.5t-66 -18q-13 0 -20.5 8t-7.5 19v4q0 12 8 19t18 9q23 5 42.5 17t31.5 33t12 51v516q0 12 8.5 21t21.5 9t21.5 -9t8.5 -21v-525z" />
    <glyph glyph-name="uni0259" unicode="&#x259;" horiz-adv-x="565" 
d="M254 523q78 0 137 -33t92 -92t33 -138q0 -84 -33.5 -145t-87 -93t-113.5 -32q-44 0 -85.5 15.5t-74 46t-52 74.5t-21.5 101q1 12 9.5 21t20.5 9h402l12 -54h-394l13 12v-20q5 -47 30.5 -80t63 -50t76.5 -17q30 0 61 12t57 37.5t42 65t16 93.5q0 59 -24 106.5t-69.5 76
t-108.5 28.5q-34 0 -62.5 -10.5t-50 -26.5t-35.5 -34q-9 -9 -21 -9q-11 0 -18 8t-7 18q0 12 10 21q29 36 77.5 62.5t104.5 26.5z" />
    <glyph glyph-name="uni0272" unicode="&#x272;" horiz-adv-x="579" 
d="M-6 -197q-12 0 -19.5 8t-7.5 19q0 15 7 22t19 10q22 5 41.5 17t32 33t12.5 51v515q0 12 8.5 21t21.5 9t21.5 -9t8.5 -21v-84l-23 -36q2 32 20.5 61.5t47.5 53t64.5 37t71.5 13.5q66 0 105.5 -26.5t57 -72t17.5 -100.5v-294q0 -12 -9 -21t-21 -9q-14 0 -22 9t-8 21v291
q0 40 -13 73t-42.5 53t-77.5 20q-43 0 -81.5 -20t-62.5 -53t-24 -73v-367q0 -41 -12.5 -68.5t-31.5 -44.5t-40 -25t-37.5 -10.5t-23.5 -2.5z" />
    <glyph glyph-name="uni02B9" unicode="&#x2b9;" horiz-adv-x="193" 
d="M70 674q3 26 29 26h33q13 -1 16.5 -8.5t0.5 -19.5l-64 -216q-6 -21 -28 -21q-16 0 -13 26z" />
    <glyph glyph-name="uni02BB" unicode="&#x2bb;" horiz-adv-x="199" 
d="M37 596q0 28 16 53t39 41.5t45 16.5q8 0 15 -4.5t7 -18.5t-8.5 -16t-24.5 -9q-16 -9 -25 -21t-9 -27q0 -13 7.5 -20.5t17.5 -7.5q7 0 14.5 2.5t11.5 6.5q7 -5 10 -11.5t3 -15.5q-1 -16 -18.5 -28.5t-38.5 -12.5q-27 0 -44.5 22t-17.5 50z" />
    <glyph glyph-name="uni02BC" unicode="&#x2bc;" horiz-adv-x="193" 
d="M70 674q3 26 29 26h33q13 -1 16.5 -8.5t0.5 -19.5l-64 -216q-6 -21 -28 -21q-16 0 -13 26z" />
    <glyph glyph-name="uni02BE" unicode="&#x2be;" horiz-adv-x="220" 
d="M44 624q0 15 10 19.5t14 4.5q24 0 38.5 13.5t14.5 36.5q0 25 -14.5 38t-38.5 13q-5 0 -10.5 2t-9.5 7.5t-4 14.5q0 14 10 18.5t14 4.5q27 0 50.5 -13t37.5 -35.5t14 -49.5t-14 -49.5t-37.5 -35.5t-50.5 -13q-11 0 -17.5 7t-6.5 17z" />
    <glyph glyph-name="uni02BF" unicode="&#x2bf;" horiz-adv-x="220" 
d="M170 624q0 -10 -6.5 -17t-16.5 -7t-27.5 5t-34.5 16t-29 30t-12 47q0 27 14 49.5t37.5 35.5t50.5 13q10 0 16.5 -7t6.5 -16t-3.5 -14.5t-8.5 -7.5t-10 -2q-8 0 -21 -3.5t-23 -14.5t-10 -33q0 -23 14.5 -36.5t39.5 -13.5q9 0 16 -7t7 -17z" />
    <glyph glyph-name="circumflex" unicode="&#x2c6;" horiz-adv-x="345" 
d="M180 670l-87 -73q-7 -6 -12.5 -10t-13.5 -4q-7 0 -12 5t-5 11q0 4 1.5 8t6.5 8l73 80q11 17 33 17h16q11 0 18.5 -3.5t13.5 -13.5l72 -79q4 -5 5.5 -8.5t1.5 -8.5t-4.5 -10t-11.5 -5q-8 0 -14 4t-13 10l-89 71z" />
    <glyph glyph-name="caron" unicode="&#x2c7;" horiz-adv-x="329" 
d="M156 569q-22 0 -34 16l-71 78q-8 8 -8 17q0 7 5.5 11.5t13.5 4.5q10 0 26 -13l84 -68l-14 -2l82 70q8 7 14.5 10.5t13.5 3.5q8 0 13 -4.5t5 -11.5q0 -4 -2 -8.5t-7 -9.5l-72 -78q-11 -16 -33 -16h-16z" />
    <glyph glyph-name="uni02C8" unicode="&#x2c8;" horiz-adv-x="205" 
d="M132 432q0 -12 -8.5 -21t-21.5 -9t-21.5 9t-8.5 21v268q0 12 8.5 21t22.5 9q13 0 21 -9t8 -21v-268z" />
    <glyph glyph-name="uni02C9" unicode="&#x2c9;" horiz-adv-x="474" 
d="M103 641q-16 0 -23 9t-7 22q0 14 8 21t22 7h268q14 0 22.5 -7t8.5 -21q0 -15 -8 -23t-23 -8h-268z" />
    </font>
</defs>
</svg>
